  0
SECTION
  2
HEADER
  9
$ACADVER
  1
AC1021
  9
$ACADMAINTVER
 70
    50
  9
$DWGCODEPAGE
  3
ANSI_936
  9
$LASTSAVEDBY
  1
stephanie
  9
$INSBASE
 10
0.0
 20
0.0
 30
0.0
  9
$EXTMIN
 10
835.7304309442255
 20
474.8611331474355
 30
-0.0015258207003583
  9
$EXTMAX
 10
872.6118549871566
 20
560.6660102128487
 30
0.0000000349246037
  9
$LIMMIN
 10
0.0
 20
0.0
  9
$LIMMAX
 10
12.0
 20
9.0
  9
$ORTHOMODE
 70
     1
  9
$REGENMODE
 70
     1
  9
$FILLMODE
 70
     1
  9
$QTEXTMODE
 70
     0
  9
$MIRRTEXT
 70
     0
  9
$LTSCALE
 40
1.0
  9
$ATTMODE
 70
     1
  9
$TEXTSIZE
 40
0.2
  9
$TRACEWID
 40
0.05
  9
$TEXTSTYLE
  7
STANDARD
  9
$CLAYER
  8
标注
  9
$CELTYPE
  6
ByLayer
  9
$CECOLOR
 62
   256
  9
$CELTSCALE
 40
1.0
  9
$DISPSILH
 70
     0
  9
$DIMSCALE
 40
1.0
  9
$DIMASZ
 40
0.65
  9
$DIMEXO
 40
0.88
  9
$DIMDLI
 40
0.015
  9
$DIMRND
 40
0.0
  9
$DIMDLE
 40
0.0
  9
$DIMEXE
 40
0.32
  9
$DIMTP
 40
0.0
  9
$DIMTM
 40
0.0
  9
$DIMTXT
 40
0.65
  9
$DIMCEN
 40
0.09
  9
$DIMTSZ
 40
0.0
  9
$DIMTOL
 70
     0
  9
$DIMLIM
 70
     0
  9
$DIMTIH
 70
     0
  9
$DIMTOH
 70
     0
  9
$DIMSE1
 70
     0
  9
$DIMSE2
 70
     0
  9
$DIMTAD
 70
     0
  9
$DIMZIN
 70
     8
  9
$DIMBLK
  1

  9
$DIMASO
 70
     1
  9
$DIMSHO
 70
     1
  9
$DIMPOST
  1

  9
$DIMAPOST
  1
"
  9
$DIMALT
 70
     0
  9
$DIMALTD
 70
     1
  9
$DIMALTF
 40
0.03937
  9
$DIMLFAC
 40
1.0
  9
$DIMTOFL
 70
     1
  9
$DIMTVP
 40
0.0
  9
$DIMTIX
 70
     0
  9
$DIMSOXD
 70
     0
  9
$DIMSAH
 70
     0
  9
$DIMBLK1
  1

  9
$DIMBLK2
  1

  9
$DIMSTYLE
  2
副本STANDARD
  9
$DIMCLRD
 70
   256
  9
$DIMCLRE
 70
   256
  9
$DIMCLRT
 70
   256
  9
$DIMTFAC
 40
1.0
  9
$DIMGAP
 40
0.2
  9
$DIMJUST
 70
     0
  9
$DIMSD1
 70
     0
  9
$DIMSD2
 70
     0
  9
$DIMTOLJ
 70
     1
  9
$DIMTZIN
 70
     8
  9
$DIMALTZ
 70
     8
  9
$DIMALTTZ
 70
     8
  9
$DIMUPT
 70
     0
  9
$DIMDEC
 70
     3
  9
$DIMTDEC
 70
     3
  9
$DIMALTU
 70
     2
  9
$DIMALTTD
 70
     1
  9
$DIMTXSTY
  7
STANDARD
  9
$DIMAUNIT
 70
     0
  9
$DIMADEC
 70
     0
  9
$DIMALTRND
 40
0.0
  9
$DIMAZIN
 70
     0
  9
$DIMDSEP
 70
    46
  9
$DIMATFIT
 70
     3
  9
$DIMFRAC
 70
     2
  9
$DIMLDRBLK
  1

  9
$DIMLUNIT
 70
     5
  9
$DIMLWD
 70
    -2
  9
$DIMLWE
 70
    -2
  9
$DIMTMOVE
 70
     2
  9
$DIMFXL
 40
1.0
  9
$DIMFXLON
 70
     0
  9
$DIMJOGANG
 40
0.7853981633974483
  9
$DIMTFILL
 70
     0
  9
$DIMTFILLCLR
 70
     0
  9
$DIMARCSYM
 70
     0
  9
$DIMLTYPE
  6

  9
$DIMLTEX1
  6

  9
$DIMLTEX2
  6

  9
$LUNITS
 70
     2
  9
$LUPREC
 70
     4
  9
$SKETCHINC
 40
0.1
  9
$FILLETRAD
 40
0.0
  9
$AUNITS
 70
     0
  9
$AUPREC
 70
     0
  9
$MENU
  1
.
  9
$ELEVATION
 40
0.0
  9
$PELEVATION
 40
0.0
  9
$THICKNESS
 40
0.0
  9
$LIMCHECK
 70
     0
  9
$CHAMFERA
 40
0.0
  9
$CHAMFERB
 40
0.0
  9
$CHAMFERC
 40
0.0
  9
$CHAMFERD
 40
0.0
  9
$SKPOLY
 70
     0
  9
$TDCREATE
 40
2455434.724808658
  9
$TDUCREATE
 40
2455434.391475324
  9
$TDUPDATE
 40
2458690.739329109
  9
$TDUUPDATE
 40
2458690.405995776
  9
$TDINDWG
 40
0.2869163194
  9
$TDUSRTIMER
 40
0.2868987847
  9
$USRTIMER
 70
     1
  9
$ANGBASE
 50
0.0
  9
$ANGDIR
 70
     0
  9
$PDMODE
 70
     0
  9
$PDSIZE
 40
0.0
  9
$PLINEWID
 40
0.0
  9
$SPLFRAME
 70
     0
  9
$SPLINETYPE
 70
     6
  9
$SPLINESEGS
 70
     8
  9
$HANDSEED
  5
32CF
  9
$SURFTAB1
 70
     6
  9
$SURFTAB2
 70
     6
  9
$SURFTYPE
 70
     6
  9
$SURFU
 70
     6
  9
$SURFV
 70
     6
  9
$UCSBASE
  2

  9
$UCSNAME
  2

  9
$UCSORG
 10
0.0
 20
0.0
 30
0.0
  9
$UCSXDIR
 10
1.0
 20
0.0
 30
0.0
  9
$UCSYDIR
 10
0.0
 20
1.0
 30
0.0
  9
$UCSORTHOREF
  2

  9
$UCSORTHOVIEW
 70
     0
  9
$UCSORGTOP
 10
0.0
 20
0.0
 30
0.0
  9
$UCSORGBOTTOM
 10
0.0
 20
0.0
 30
0.0
  9
$UCSORGLEFT
 10
0.0
 20
0.0
 30
0.0
  9
$UCSORGRIGHT
 10
0.0
 20
0.0
 30
0.0
  9
$UCSORGFRONT
 10
0.0
 20
0.0
 30
0.0
  9
$UCSORGBACK
 10
0.0
 20
0.0
 30
0.0
  9
$PUCSBASE
  2

  9
$PUCSNAME
  2

  9
$PUCSORG
 10
0.0
 20
0.0
 30
0.0
  9
$PUCSXDIR
 10
1.0
 20
0.0
 30
0.0
  9
$PUCSYDIR
 10
0.0
 20
1.0
 30
0.0
  9
$PUCSORTHOREF
  2

  9
$PUCSORTHOVIEW
 70
     0
  9
$PUCSORGTOP
 10
0.0
 20
0.0
 30
0.0
  9
$PUCSORGBOTTOM
 10
0.0
 20
0.0
 30
0.0
  9
$PUCSORGLEFT
 10
0.0
 20
0.0
 30
0.0
  9
$PUCSORGRIGHT
 10
0.0
 20
0.0
 30
0.0
  9
$PUCSORGFRONT
 10
0.0
 20
0.0
 30
0.0
  9
$PUCSORGBACK
 10
0.0
 20
0.0
 30
0.0
  9
$USERI1
 70
     0
  9
$USERI2
 70
     0
  9
$USERI3
 70
     0
  9
$USERI4
 70
     0
  9
$USERI5
 70
     0
  9
$USERR1
 40
0.0
  9
$USERR2
 40
0.0
  9
$USERR3
 40
0.0
  9
$USERR4
 40
0.0
  9
$USERR5
 40
2.5
  9
$WORLDVIEW
 70
     1
  9
$SHADEDGE
 70
     3
  9
$SHADEDIF
 70
    70
  9
$TILEMODE
 70
     1
  9
$MAXACTVP
 70
    64
  9
$PINSBASE
 10
0.0
 20
0.0
 30
0.0
  9
$PLIMCHECK
 70
     0
  9
$PEXTMIN
 10
1.000000000000000E+20
 20
1.000000000000000E+20
 30
1.000000000000000E+20
  9
$PEXTMAX
 10
-1.000000000000000E+20
 20
-1.000000000000000E+20
 30
-1.000000000000000E+20
  9
$PLIMMIN
 10
0.0
 20
0.0
  9
$PLIMMAX
 10
12.0
 20
9.0
  9
$UNITMODE
 70
     0
  9
$VISRETAIN
 70
     1
  9
$PLINEGEN
 70
     0
  9
$PSLTSCALE
 70
     1
  9
$TREEDEPTH
 70
  3020
  9
$CMLSTYLE
  2
Standard
  9
$CMLJUST
 70
     0
  9
$CMLSCALE
 40
1.0
  9
$PROXYGRAPHICS
 70
     1
  9
$MEASUREMENT
 70
     0
  9
$CELWEIGHT
370
    -1
  9
$ENDCAPS
280
     0
  9
$JOINSTYLE
280
     0
  9
$LWDISPLAY
290
     0
  9
$INSUNITS
 70
     0
  9
$HYPERLINKBASE
  1

  9
$STYLESHEET
  1

  9
$XEDIT
290
     1
  9
$CEPSNTYPE
380
     0
  9
$PSTYLEMODE
290
     1
  9
$FINGERPRINTGUID
  2
{6F55B92F-4186-4E86-BBF8-C12D68290491}
  9
$VERSIONGUID
  2
{B93D828E-5A98-452B-8897-0D80A9103EE4}
  9
$EXTNAMES
290
     1
  9
$PSVPSCALE
 40
0.0
  9
$OLESTARTUP
290
     0
  9
$SORTENTS
280
   127
  9
$INDEXCTL
280
     0
  9
$HIDETEXT
280
     0
  9
$XCLIPFRAME
290
     0
  9
$HALOGAP
280
     0
  9
$OBSCOLOR
 70
   257
  9
$OBSLTYPE
280
     0
  9
$INTERSECTIONDISPLAY
280
     0
  9
$INTERSECTIONCOLOR
 70
   257
  9
$DIMASSOC
280
     1
  9
$PROJECTNAME
  1

  9
$CAMERADISPLAY
290
     0
  9
$LENSLENGTH
 40
50.0
  9
$CAMERAHEIGHT
 40
0.0
  9
$STEPSPERSEC
 40
2.0
  9
$STEPSIZE
 40
6.0
  9
$3DDWFPREC
 40
2.0
  9
$PSOLWIDTH
 40
0.25
  9
$PSOLHEIGHT
 40
4.0
  9
$LOFTANG1
 40
1.570796326794896
  9
$LOFTANG2
 40
1.570796326794896
  9
$LOFTMAG1
 40
0.0
  9
$LOFTMAG2
 40
0.0
  9
$LOFTPARAM
 70
     7
  9
$LOFTNORMALS
280
     1
  9
$LATITUDE
 40
37.795
  9
$LONGITUDE
 40
-122.394
  9
$NORTHDIRECTION
 40
0.0
  9
$TIMEZONE
 70
 -8000
  9
$LIGHTGLYPHDISPLAY
280
     1
  9
$TILEMODELIGHTSYNCH
280
     1
  9
$CMATERIAL
347
2F5E
  9
$SOLIDHIST
280
     0
  9
$SHOWHIST
280
     1
  9
$DWFFRAME
280
     2
  9
$DGNFRAME
280
     0
  9
$REALWORLDSCALE
290
     1
  9
$INTERFERECOLOR
 62
     1
  9
$INTERFEREOBJVS
345
2F6B
  9
$INTERFEREVPVS
346
3213
  9
$CSHADOW
280
     0
  9
$SHADOWPLANELOCATION
 40
0.0
  0
ENDSEC
  0
SECTION
  2
CLASSES
  0
CLASS
  1
ACDBDICTIONARYWDFLT
  2
AcDbDictionaryWithDefault
  3
ObjectDBX Classes
 90
        0
 91
        1
280
     0
281
     0
  0
CLASS
  1
MATERIAL
  2
AcDbMaterial
  3
ObjectDBX Classes
 90
     1153
 91
        3
280
     0
281
     0
  0
CLASS
  1
VISUALSTYLE
  2
AcDbVisualStyle
  3
ObjectDBX Classes
 90
     4095
 91
       26
280
     0
281
     0
  0
CLASS
  1
TABLESTYLE
  2
AcDbTableStyle
  3
ObjectDBX Classes
 90
     4095
 91
        1
280
     0
281
     0
  0
CLASS
  1
SORTENTSTABLE
  2
AcDbSortentsTable
  3
ObjectDBX Classes
 90
        0
 91
        1
280
     0
281
     0
  0
CLASS
  1
DICTIONARYVAR
  2
AcDbDictionaryVar
  3
ObjectDBX Classes
 90
        0
 91
        9
280
     0
281
     0
  0
CLASS
  1
SCALE
  2
AcDbScale
  3
ObjectDBX Classes
 90
     1153
 91
       17
280
     0
281
     0
  0
CLASS
  1
MLEADERSTYLE
  2
AcDbMLeaderStyle
  3
ACDB_MLEADERSTYLE_CLASS
 90
     4095
 91
        1
280
     0
281
     0
  0
CLASS
  1
ACDBSECTIONVIEWSTYLE
  2
AcDbSectionViewStyle
  3
ObjectDBX Classes
 90
     1025
 91
        1
280
     0
281
     0
  0
CLASS
  1
ACDBDETAILVIEWSTYLE
  2
AcDbDetailViewStyle
  3
ObjectDBX Classes
 90
     1025
 91
        1
280
     0
281
     0
  0
CLASS
  1
CELLSTYLEMAP
  2
AcDbCellStyleMap
  3
ObjectDBX Classes
 90
     1152
 91
        1
280
     0
281
     0
  0
ENDSEC
  0
SECTION
  2
TABLES
  0
TABLE
  2
VPORT
  5
2F55
330
0
100
AcDbSymbolTable
 70
     1
  0
VPORT
  5
2F88
330
2F55
100
AcDbSymbolTableRecord
100
AcDbViewportTableRecord
  2
*ACTIVE
 70
     0
 10
0.0
 20
0.0
 11
1.0
 21
1.0
 12
854.1711429656912
 22
517.7635716801421
 13
0.0
 23
0.0
 14
0.5
 24
0.5
 15
0.5
 25
0.5
 16
0.0
 26
0.0
 36
1.0
 17
0.0
 27
0.0
 37
0.0
 40
86.8183204953196
 41
2.64102564102564
 42
50.0
 43
0.0
 44
0.0
 50
0.0
 51
0.0
 71
     0
 72
  1000
 73
     1
 74
     3
 75
     0
 76
     0
 77
     0
 78
     0
281
     0
 65
     1
110
0.0
120
0.0
130
0.0
111
1.0
121
0.0
131
0.0
112
0.0
122
1.0
132
0.0
 79
     0
146
0.0
348
2F67
 60
     3
 61
     5
292
     1
282
     1
141
0.0
142
0.0
 63
   250
421
  3355443
1001
ACAD_NAV_VCDISPLAY
1070
     3
  0
ENDTAB
  0
TABLE
  2
LTYPE
  5
2F52
330
0
100
AcDbSymbolTable
 70
    19
  0
LTYPE
  5
2F75
330
2F52
100
AcDbSymbolTableRecord
100
AcDbLinetypeTableRecord
  2
ByBlock
 70
     0
  3

 72
    65
 73
     0
 40
0.0
  0
LTYPE
  5
2F76
330
2F52
100
AcDbSymbolTableRecord
100
AcDbLinetypeTableRecord
  2
ByLayer
 70
     0
  3

 72
    65
 73
     0
 40
0.0
  0
LTYPE
  5
2F77
330
2F52
100
AcDbSymbolTableRecord
100
AcDbLinetypeTableRecord
  2
CONTINUOUS
 70
     0
  3
Solid line
 72
    65
 73
     0
 40
0.0
  0
LTYPE
  5
2F89
330
2F52
100
AcDbSymbolTableRecord
100
AcDbLinetypeTableRecord
  2
CENTER2
 70
     0
  3
Center (.5x) ___ _ ___ _ ___ _ ___ _ ___ _ ___
 72
    65
 73
     4
 40
28.575
 49
19.05
 74
     0
 49
-3.174999999999998
 74
     0
 49
3.174999999999998
 74
     0
 49
-3.174999999999998
 74
     0
  0
LTYPE
  5
2F8A
330
2F52
100
AcDbSymbolTableRecord
100
AcDbLinetypeTableRecord
  2
HIDDEN2
 70
     0
  3
Hidden (.5x) _ _ _ _ _ _ _ _ _ _ _ _ _ _ _ _ _
 72
    65
 73
     2
 40
4.762499999999998
 49
3.174999999999998
 74
     0
 49
-1.587499999999999
 74
     0
  0
LTYPE
  5
2F8B
330
2F52
100
AcDbSymbolTableRecord
100
AcDbLinetypeTableRecord
  2
HIDDEN
 70
     0
  3
Hidden __ __ __ __ __ __ __ __ __ __ __ __ __ _
 72
    65
 73
     2
 40
0.375
 49
0.25
 74
     0
 49
-0.125
 74
     0
  0
LTYPE
  5
2F8C
330
2F52
100
AcDbSymbolTableRecord
100
AcDbLinetypeTableRecord
  2
PHANTOM2
 70
     0
  3
Phantom (.5x) ___ _ _ ___ _ _ ___ _ _ ___ _ _
 72
    65
 73
     6
 40
1.25
 49
0.625
 74
     0
 49
-0.125
 74
     0
 49
0.125
 74
     0
 49
-0.125
 74
     0
 49
0.125
 74
     0
 49
-0.125
 74
     0
  0
LTYPE
  5
2F8D
330
2F52
100
AcDbSymbolTableRecord
100
AcDbLinetypeTableRecord
  2
CENTER
 70
     0
  3
Center ____ _ ____ _ ____ _ ____ _ ____ _ ____
 72
    65
 73
     4
 40
2.0
 49
1.25
 74
     0
 49
-0.25
 74
     0
 49
0.25
 74
     0
 49
-0.25
 74
     0
  0
LTYPE
  5
2F8E
330
2F52
100
AcDbSymbolTableRecord
100
AcDbLinetypeTableRecord
  2
AM_ISO02W050
 70
     0
  3
__ __ __ __ __ __ __ __ __ __ __ __ __ __ __
 72
    65
 73
     2
 40
7.5
 49
6.0
 74
     0
 49
-1.5
 74
     0
  0
LTYPE
  5
2F8F
330
2F52
100
AcDbSymbolTableRecord
100
AcDbLinetypeTableRecord
  2
AM_ISO08W050
 70
     0
  3
____ . ____ . ____ . ____ . ____ . ____ . ____
 72
    65
 73
     4
 40
18.0
 49
12.0
 74
     0
 49
-1.5
 74
     0
 49
3.0
 74
     0
 49
-1.5
 74
     0
  0
LTYPE
  5
2F90
330
2F52
100
AcDbSymbolTableRecord
100
AcDbLinetypeTableRecord
  2
AM_ISO09W050
 70
     0
  3
_____ . . _____ . . _____ . . ____ .. ____
 72
    65
 73
     6
 40
22.5
 49
12.0
 74
     0
 49
-1.5
 74
     0
 49
3.0
 74
     0
 49
-1.5
 74
     0
 49
3.0
 74
     0
 49
-1.5
 74
     0
  0
LTYPE
  5
2F91
330
2F52
100
AcDbSymbolTableRecord
100
AcDbLinetypeTableRecord
  2
AMCONSTR
 70
     0
  3
_______________________
 72
    65
 73
     2
 40
9999.0
 49
9999.0
 74
     0
 49
0.0
 74
     0
  0
LTYPE
  5
2F92
330
2F52
100
AcDbSymbolTableRecord
100
AcDbLinetypeTableRecord
  2
AM_ISO08W050X2
 70
     0
  3
__ . __ . __ . __ . __ . __
 72
    65
 73
     4
 40
9.0
 49
6.0
 74
     0
 49
-0.75
 74
     0
 49
1.5
 74
     0
 49
-0.75
 74
     0
  0
LTYPE
  5
2F93
330
2F52
100
AcDbSymbolTableRecord
100
AcDbLinetypeTableRecord
  2
AM_ISO02W050X2
 70
     0
  3
 _ _ _ _ _ _ _ _ _ _ _ _
 72
    65
 73
     2
 40
3.75
 49
3.0
 74
     0
 49
-0.75
 74
     0
  0
LTYPE
  5
2F94
330
2F52
100
AcDbSymbolTableRecord
100
AcDbLinetypeTableRecord
  2
AMZIGZAG
 70
     0
  3
/\/-/\/-/\/-/\/-/\/-/\/
 72
    65
 73
     2
 40
11.0001
 49
0.0001
 74
     0
 49
-11.0
 74
     0
  0
LTYPE
  5
2F95
330
2F52
100
AcDbSymbolTableRecord
100
AcDbLinetypeTableRecord
  2
AMZIGZAG2
 70
     0
  3
/\/-/\/-/\/-/\/-/\/-/\/
 72
    65
 73
     2
 40
0.4401
 49
0.0001
 74
     0
 49
-0.4400000000000003
 74
     0
  0
LTYPE
  5
2F96
330
2F52
100
AcDbSymbolTableRecord
100
AcDbLinetypeTableRecord
  2
ACANSTGB
 70
     0
  3
__ . . __ . .
 72
    65
 73
     6
 40
0.35433070866
 49
0.15748031496
 74
     0
 49
-0.03937007874
 74
     0
 49
0.03937007874
 74
     0
 49
-0.03937007874
 74
     0
 49
0.03937007874
 74
     0
 49
-0.03937007874
 74
     0
  0
LTYPE
  5
2F97
330
2F52
100
AcDbSymbolTableRecord
100
AcDbLinetypeTableRecord
  2
ACANSTGL
 70
     0
  3
_ _ _ _ _
 72
    65
 73
     2
 40
0.11811023622
 49
0.07874015748
 74
     0
 49
-0.03937007874
 74
     0
  0
LTYPE
  5
2F98
330
2F52
100
AcDbSymbolTableRecord
100
AcDbLinetypeTableRecord
  2
ACISOWELD
 70
     0
  3
_ _ _ _ _
 72
    65
 73
     2
 40
2.0
 49
2.0
 74
     0
 49
-1.0
 74
     0
  0
LTYPE
  5
2F99
330
2F52
100
AcDbSymbolTableRecord
100
AcDbLinetypeTableRecord
  2
ACISOTGB
 70
     0
  3
__ . . __ . .
 72
    65
 73
     6
 40
9.0
 49
4.0
 74
     0
 49
-1.0
 74
     0
 49
1.0
 74
     0
 49
-1.0
 74
     0
 49
1.0
 74
     0
 49
-1.0
 74
     0
  0
LTYPE
  5
2F9A
330
2F52
100
AcDbSymbolTableRecord
100
AcDbLinetypeTableRecord
  2
ACISOTGL
 70
     0
  3
_ _ _ _ _
 72
    65
 73
     2
 40
3.0
 49
2.0
 74
     0
 49
-1.0
 74
     0
  0
ENDTAB
  0
TABLE
  2
LAYER
  5
2F4F
330
0
100
AcDbSymbolTable
 70
    10
  0
LAYER
  5
2F72
102
{ACAD_XDICTIONARY
360
3279
102
}
330
2F4F
100
AcDbSymbolTableRecord
100
AcDbLayerTableRecord
  2
0
 70
     0
 62
     7
  6
CONTINUOUS
370
    -3
390
2F5C
347
2F60
  0
LAYER
  5
2F87
102
{ACAD_XDICTIONARY
360
327B
102
}
330
2F4F
100
AcDbSymbolTableRecord
100
AcDbLayerTableRecord
  2
标注
 70
     0
 62
    80
  6
CONTINUOUS
370
    -3
390
2F5C
347
2F60
  0
LAYER
  5
2F9B
102
{ACAD_XDICTIONARY
360
327D
102
}
330
2F4F
100
AcDbSymbolTableRecord
100
AcDbLayerTableRecord
  2
中心线
 70
     0
 62
     1
  6
CENTER2
370
    -3
390
2F5C
347
2F60
  0
LAYER
  5
2F9C
102
{ACAD_XDICTIONARY
360
327F
102
}
330
2F4F
100
AcDbSymbolTableRecord
100
AcDbLayerTableRecord
  2
虚线
 70
     0
 62
     4
  6
HIDDEN2
370
    -3
390
2F5C
347
2F60
  0
LAYER
  5
2F9D
330
2F4F
100
AcDbSymbolTableRecord
100
AcDbLayerTableRecord
  2
DEFPOINTS
 70
     0
 62
     7
  6
CONTINUOUS
290
     0
370
    -3
390
2F5C
347
2F60
  0
LAYER
  5
2F9E
102
{ACAD_XDICTIONARY
360
3281
102
}
330
2F4F
100
AcDbSymbolTableRecord
100
AcDbLayerTableRecord
  2
细实线
 70
     0
 62
     7
  6
CONTINUOUS
370
    -3
390
2F5C
347
2F60
  0
LAYER
  5
2F9F
102
{ACAD_XDICTIONARY
360
3283
102
}
330
2F4F
100
AcDbSymbolTableRecord
100
AcDbLayerTableRecord
  2
标注线
 70
     0
 62
     3
  6
CONTINUOUS
370
    -3
390
2F5C
347
2F60
  0
LAYER
  5
2FA0
102
{ACAD_XDICTIONARY
360
3285
102
}
330
2F4F
100
AcDbSymbolTableRecord
100
AcDbLayerTableRecord
  2
截面层
 70
     0
 62
     6
  6
CONTINUOUS
370
    -3
390
2F5C
347
2F60
  0
LAYER
  5
2FA1
102
{ACAD_XDICTIONARY
360
3287
102
}
330
2F4F
100
AcDbSymbolTableRecord
100
AcDbLayerTableRecord
  2
粗实线
 70
     0
 62
     7
  6
CONTINUOUS
370
    -3
390
2F5C
347
2F60
  0
LAYER
  5
2FA2
102
{ACAD_XDICTIONARY
360
3289
102
}
330
2F4F
100
AcDbSymbolTableRecord
100
AcDbLayerTableRecord
  2
BIAOZHU
 70
     0
 62
     3
  6
CONTINUOUS
370
    -3
390
2F5C
347
2F60
  0
ENDTAB
  0
TABLE
  2
STYLE
  5
2F50
330
0
100
AcDbSymbolTable
 70
     7
  0
STYLE
  5
2F73
330
2F50
100
AcDbSymbolTableRecord
100
AcDbTextStyleTableRecord
  2
STANDARD
 70
     0
 40
0.0
 41
1.0
 50
0.0
 71
     0
 42
0.2
  3
ARIALUNI.TTF
  4

1001
ACAD
1000
@Arial Unicode MS
1071
    34338
  0
STYLE
  5
2FA3
330
2F50
100
AcDbSymbolTableRecord
100
AcDbTextStyleTableRecord
  2
ANNOTATIVE
 70
     0
 40
0.0
 41
1.0
 50
0.0
 71
     0
 42
0.2
  3
txt
  4

  0
STYLE
  5
2FA4
330
2F50
100
AcDbSymbolTableRecord
100
AcDbTextStyleTableRecord
  2

 70
     1
 40
0.0
 41
1.0
 50
0.0
 71
     0
 42
0.2
  3
genltshp.shx
  4

  0
STYLE
  5
2FA5
330
2F50
100
AcDbSymbolTableRecord
100
AcDbTextStyleTableRecord
  2
ACANSGDT
 70
     0
 40
0.0
 41
1.0
 50
0.0
 71
     0
 42
0.2
  3
amgdt.shx
  4

  0
STYLE
  5
2FA6
330
2F50
100
AcDbSymbolTableRecord
100
AcDbTextStyleTableRecord
  2
ACISOGDT
 70
     0
 40
0.0
 41
1.0
 50
0.0
 71
     0
 42
2.5
  3
amgdt.shx
  4

  0
STYLE
  5
2FA7
330
2F50
100
AcDbSymbolTableRecord
100
AcDbTextStyleTableRecord
  2
ACANSTS
 70
     0
 40
1.0
 41
1.0
 50
0.0
 71
     0
 42
0.2
  3
romans.shx
  4
gbcbig.shx
  0
STYLE
  5
2FA8
330
2F50
100
AcDbSymbolTableRecord
100
AcDbTextStyleTableRecord
  2
A35
 70
     0
 40
17.5
 41
1.0
 50
0.0
 71
     0
 42
17.5
  3
txt.shx
  4

  0
ENDTAB
  0
TABLE
  2
VIEW
  5
2F53
330
0
100
AcDbSymbolTable
 70
     0
  0
ENDTAB
  0
TABLE
  2
UCS
  5
2F54
330
0
100
AcDbSymbolTable
 70
     0
  0
ENDTAB
  0
TABLE
  2
APPID
  5
2F56
330
0
100
AcDbSymbolTable
 70
    27
  0
APPID
  5
2F74
330
2F56
100
AcDbSymbolTableRecord
100
AcDbRegAppTableRecord
  2
ACAD
 70
     0
  0
APPID
  5
2FA9
330
2F56
100
AcDbSymbolTableRecord
100
AcDbRegAppTableRecord
  2
ACADANNOTATIVE
 70
     0
  0
APPID
  5
2FAA
330
2F56
100
AcDbSymbolTableRecord
100
AcDbRegAppTableRecord
  2
ACAECLAYERSTANDARD
 70
     0
  0
APPID
  5
2FAB
330
2F56
100
AcDbSymbolTableRecord
100
AcDbRegAppTableRecord
  2
ACAD_DSTYLE_DIMEXT_LENGTH
 70
     0
  0
APPID
  5
2FAC
330
2F56
100
AcDbSymbolTableRecord
100
AcDbRegAppTableRecord
  2
ACAD_DSTYLE_DIMEXT_ENABLED
 70
     0
  0
APPID
  5
2FAD
330
2F56
100
AcDbSymbolTableRecord
100
AcDbRegAppTableRecord
  2
ACAD_DSTYLE_DIMJOGGED_JOGA
 70
     0
  0
APPID
  5
2FAE
330
2F56
100
AcDbSymbolTableRecord
100
AcDbRegAppTableRecord
  2
ACAD_DSTYLE_DIMARC_LENGTH_
 70
     0
  0
APPID
  5
2FAF
330
2F56
100
AcDbSymbolTableRecord
100
AcDbRegAppTableRecord
  2
ACAD_PSEXT
 70
     0
  0
APPID
  5
2FB0
330
2F56
100
AcDbSymbolTableRecord
100
AcDbRegAppTableRecord
  2
MCAD_NO_VIS
 70
     0
  0
APPID
  5
2FB1
330
2F56
100
AcDbSymbolTableRecord
100
AcDbRegAppTableRecord
  2
ACAD_TEMP_GRAPHIC
 70
     0
  0
APPID
  5
2FB2
330
2F56
100
AcDbSymbolTableRecord
100
AcDbRegAppTableRecord
  2
AD_DRAW
 70
     0
  0
APPID
  5
2FB3
330
2F56
100
AcDbSymbolTableRecord
100
AcDbRegAppTableRecord
  2
ACATTRIBSERVICES
 70
     0
  0
APPID
  5
2FB4
330
2F56
100
AcDbSymbolTableRecord
100
AcDbRegAppTableRecord
  2
DESIGNERASSEMBLIES
 70
     0
  0
APPID
  5
2FB5
330
2F56
100
AcDbSymbolTableRecord
100
AcDbRegAppTableRecord
  2
ACADM_DIM_EDIT
 70
     0
  0
APPID
  5
2FB6
330
2F56
100
AcDbSymbolTableRecord
100
AcDbRegAppTableRecord
  2
AMDT_DM_ADJ
 70
     0
  0
APPID
  5
2FB7
330
2F56
100
AcDbSymbolTableRecord
100
AcDbRegAppTableRecord
  2
ACAD_DSTYLE_DIMJAG
 70
     0
  0
APPID
  5
2FB8
330
2F56
100
AcDbSymbolTableRecord
100
AcDbRegAppTableRecord
  2
ACAD_DSTYLE_DIMBREAK
 70
     0
  0
APPID
  5
2FB9
330
2F56
100
AcDbSymbolTableRecord
100
AcDbRegAppTableRecord
  2
ACAD_DSTYLE_DIMTALN
 70
     0
  0
APPID
  5
2FBA
330
2F56
100
AcDbSymbolTableRecord
100
AcDbRegAppTableRecord
  2
GENIUS_GENODEF_13
 70
     0
  0
APPID
  5
2FBB
330
2F56
100
AcDbSymbolTableRecord
100
AcDbRegAppTableRecord
  2
GENIUS_GENOBJ-N-FIL_13
 70
     0
  0
APPID
  5
2FBC
330
2F56
100
AcDbSymbolTableRecord
100
AcDbRegAppTableRecord
  2
ACAD_EXEMPT_FROM_CAD_STANDARDS
 70
     0
  0
APPID
  5
2FBD
330
2F56
100
AcDbSymbolTableRecord
100
AcDbRegAppTableRecord
  2
ACAD_MLEADERVER
 70
     0
  0
APPID
  5
2FBE
330
2F56
100
AcDbSymbolTableRecord
100
AcDbRegAppTableRecord
  2
ACAD_DSTYLE_DIM_LINETYPE
 70
     0
  0
APPID
  5
2FBF
330
2F56
100
AcDbSymbolTableRecord
100
AcDbRegAppTableRecord
  2
ACAD_DSTYLE_DIM_EXT1_LINETYPE
 70
     0
  0
APPID
  5
2FC0
330
2F56
100
AcDbSymbolTableRecord
100
AcDbRegAppTableRecord
  2
ACAD_DSTYLE_DIM_EXT2_LINETYPE
 70
     0
  0
APPID
  5
2FC1
330
2F56
100
AcDbSymbolTableRecord
100
AcDbRegAppTableRecord
  2
CONTENTBLOCKICON
 70
     0
  0
APPID
  5
3293
330
2F56
100
AcDbSymbolTableRecord
100
AcDbRegAppTableRecord
  2
ACAD_NAV_VCDISPLAY
 70
     0
  0
ENDTAB
  0
TABLE
  2
DIMSTYLE
  5
2F57
330
0
100
AcDbSymbolTable
 70
    27
100
AcDbDimStyleTable
 71
     2
340
2FC4
340
2FD7
  0
DIMSTYLE
105
2FC2
330
2F57
100
AcDbSymbolTableRecord
100
AcDbDimStyleTableRecord
  2
STANDARD
 70
     0
274
     1
279
     2
284
     8
285
     8
286
     8
340
2F73
  0
DIMSTYLE
105
2FC3
330
2F57
100
AcDbSymbolTableRecord
100
AcDbDimStyleTableRecord
  2
ANNOTATIVE
 70
     0
274
     1
279
     2
284
     8
285
     8
286
     8
340
2F73
  0
DIMSTYLE
105
2FC4
102
{ACAD_REACTORS
330
2E88
330
2E72
330
2E64
330
2E56
330
2EA4
330
2E96
330
2E48
330
2E30
102
}
330
2F57
100
AcDbSymbolTableRecord
100
AcDbDimStyleTableRecord
  2
副本STANDARD
 70
     0
  4
"
 41
0.65
 42
0.88
 43
0.015
 44
0.32
 73
     0
 74
     0
 78
     8
140
0.65
143
0.03937
147
0.2
171
     1
172
     1
176
   256
177
   256
178
   256
271
     3
272
     3
274
     1
276
     2
277
     5
279
     2
284
     8
285
     8
286
     8
340
2F73
  0
DIMSTYLE
105
2FC5
330
2F57
100
AcDbSymbolTableRecord
100
AcDbDimStyleTableRecord
  2
AM_ANSI
 70
     0
  4
mm
 41
0.12
 42
0.05
 43
0.5
 44
0.1
 47
0.1
 48
0.1
 78
     7
140
0.12
141
0.0
146
0.71
147
0.06
176
   256
177
   256
178
     2
274
     1
279
     2
284
     8
285
     8
286
     8
340
2F73
  0
DIMSTYLE
105
2FC6
330
2F57
100
AcDbSymbolTableRecord
100
AcDbDimStyleTableRecord
  2
AM_ANSI$3
 70
     0
  4
mm
 41
0.12
 42
0.05
 43
0.5
 44
0.1
 47
0.1
 48
0.1
 78
     7
140
0.12
141
0.0
146
0.71
147
0.06
176
   256
177
   256
178
     2
274
     1
279
     2
284
     8
285
     8
286
     8
340
2F73
  0
DIMSTYLE
105
2FC7
330
2F57
100
AcDbSymbolTableRecord
100
AcDbDimStyleTableRecord
  2
AM_ANSI$4
 70
     0
  4
mm
 41
0.12
 42
0.05
 43
0.5
 44
0.1
 47
0.1
 48
0.1
 78
     7
140
0.12
141
0.0
146
0.71
147
0.06
176
   256
177
   256
178
     2
274
     1
279
     2
284
     8
285
     8
286
     8
340
2F73
  0
DIMSTYLE
105
2FC8
330
2F57
100
AcDbSymbolTableRecord
100
AcDbDimStyleTableRecord
  2
AM_ANSI$7
 70
     0
  4
mm
 41
0.12
 42
0.05
 43
0.5
 44
0.1
 47
0.1
 48
0.1
 78
     7
140
0.12
141
0.0
146
0.71
147
0.06
176
   256
177
   256
178
     2
274
     1
279
     2
284
     8
285
     8
286
     8
340
2F73
  0
DIMSTYLE
105
2FC9
330
2F57
100
AcDbSymbolTableRecord
100
AcDbDimStyleTableRecord
  2
AM_ANSI$SF
 70
     0
  4
mm
 41
0.12
 42
0.05
 43
0.5
 44
0.1
 47
0.1
 48
0.1
 75
     1
 76
     1
 78
     7
140
0.12
141
0.0
146
0.71
147
0.06
176
   256
177
   256
178
     2
274
     1
279
     2
284
     8
285
     8
286
     8
340
2F73
  0
DIMSTYLE
105
2FCA
330
2F57
100
AcDbSymbolTableRecord
100
AcDbDimStyleTableRecord
  2
AM_ANSI$SH
 70
     0
  4
mm
 41
0.12
 42
0.05
 43
0.5
 44
0.1
 47
0.1
 48
0.1
 75
     1
 76
     1
 78
     7
140
0.12
141
0.0
146
0.71
147
0.06
173
     1
176
   256
177
   256
178
     2
274
     1
279
     2
284
     8
285
     8
286
     8
340
2F73
  0
DIMSTYLE
105
2FCB
330
2F57
100
AcDbSymbolTableRecord
100
AcDbDimStyleTableRecord
  2
AM_ISO
 70
     0
  4
"
 41
3.5
 42
1.0
 43
10.0
 44
1.0
 47
0.1
 48
0.1
 73
     0
 74
     0
 77
     1
 78
     8
140
3.5
141
0.0
143
0.0393701
146
0.71
147
1.5
172
     1
176
   256
177
   256
178
     2
274
     1
279
     2
284
     8
285
     8
286
     8
340
2F73
  0
DIMSTYLE
105
2FCC
330
2F57
100
AcDbSymbolTableRecord
100
AcDbDimStyleTableRecord
  2
AM_ISO$3
 70
     0
  4
"
 41
3.5
 42
1.0
 43
10.0
 44
1.0
 47
0.1
 48
0.1
 73
     0
 77
     1
 78
     8
140
3.5
141
0.0
143
0.0393701
146
0.71
147
1.5
176
   256
177
   256
178
     2
274
     1
279
     2
284
     8
285
     8
286
     8
340
2F73
  0
DIMSTYLE
105
2FCD
330
2F57
100
AcDbSymbolTableRecord
100
AcDbDimStyleTableRecord
  2
AM_ISO$4
 70
     0
  4
"
 41
3.5
 42
1.0
 43
10.0
 44
1.0
 47
0.1
 48
0.1
 73
     0
 77
     1
 78
     8
140
3.5
141
0.0
143
0.0393701
146
0.71
147
1.5
176
   256
177
   256
178
     2
274
     1
279
     2
284
     8
285
     8
286
     8
340
2F73
  0
DIMSTYLE
105
2FCE
330
2F57
100
AcDbSymbolTableRecord
100
AcDbDimStyleTableRecord
  2
AM_ISO$6
 70
     0
  4
"
 41
3.5
 42
1.0
 43
10.0
 44
1.0
 47
0.1
 48
0.1
 73
     0
 74
     0
 78
     8
140
3.5
141
0.0
143
0.0393701
146
0.71
147
1.5
172
     1
176
   256
177
   256
178
     2
274
     1
279
     2
284
     8
285
     8
286
     8
340
2F73
  0
DIMSTYLE
105
2FCF
330
2F57
100
AcDbSymbolTableRecord
100
AcDbDimStyleTableRecord
  2
AM_ISO$7
 70
     0
  4
"
 41
3.5
 42
1.0
 43
10.0
 44
1.0
 47
0.1
 48
0.1
 73
     0
 74
     0
 77
     1
 78
     8
140
3.5
141
0.0
143
0.0393701
146
0.71
147
1.5
172
     1
176
   256
177
   256
178
     2
274
     1
279
     2
284
     8
285
     8
286
     8
340
2F73
  0
DIMSTYLE
105
2FD0
330
2F57
100
AcDbSymbolTableRecord
100
AcDbDimStyleTableRecord
  2
AM_ISO$SF
 70
     0
  4
"
 41
3.5
 42
1.0
 43
10.0
 44
1.0
 47
0.1
 48
0.1
 73
     0
 74
     0
 75
     1
 76
     1
 77
     1
 78
     8
140
3.5
141
0.0
143
0.0393701
146
0.71
147
1.5
172
     1
176
   256
177
   256
178
     2
274
     1
279
     2
284
     8
285
     8
286
     8
340
2F73
  0
DIMSTYLE
105
2FD1
330
2F57
100
AcDbSymbolTableRecord
100
AcDbDimStyleTableRecord
  2
AM_ISO$SH
 70
     0
  4
"
 41
3.5
 42
1.0
 43
10.0
 44
1.0
 47
0.1
 48
0.1
 73
     0
 74
     0
 75
     1
 76
     1
 77
     1
 78
     8
140
3.5
141
0.0
143
0.0393701
144
2.0
146
0.71
147
1.5
172
     1
173
     1
176
   256
177
   256
178
     2
274
     1
279
     2
284
     8
285
     8
286
     8
340
2F73
  0
DIMSTYLE
105
2FD2
330
2F57
100
AcDbSymbolTableRecord
100
AcDbDimStyleTableRecord
  2
090319-
 70
     0
 41
16.0
 42
20.0
 43
1.5
 44
3.0
 73
     0
 74
     0
 77
     1
 78
     8
140
20.0
141
3.0
143
0.03937007874016
147
7.0
171
     3
172
     1
274
     1
279
     2
284
     8
285
     8
286
     8
340
2F73
  0
DIMSTYLE
105
2FD3
330
2F57
100
AcDbSymbolTableRecord
100
AcDbDimStyleTableRecord
  2
A35
 70
     0
 40
0.0
 41
17.5
 42
9.0
 43
1.0
 44
9.0
 73
     0
 74
     0
 77
     1
 78
    12
140
17.5
141
0.0
147
9.0
172
     1
176
   256
177
   256
178
   256
274
     1
279
     2
284
     8
285
     8
286
     8
340
2F73
  0
DIMSTYLE
105
2FD4
330
2F57
100
AcDbSymbolTableRecord
100
AcDbDimStyleTableRecord
  2
副本__2_STANDARD
 70
     0
  4
"
 41
16.0
 42
22.0
 44
8.0
 73
     0
 74
     0
 78
     8
140
16.0
143
0.03937
147
5.0
170
     1
171
     1
172
     1
176
     3
177
     3
178
     3
274
     1
279
     2
284
     8
285
     8
286
     8
340
2F73
  0
DIMSTYLE
105
2FD5
330
2F57
100
AcDbSymbolTableRecord
100
AcDbDimStyleTableRecord
  2
副本__3_STANDARD
 70
     0
  4
"
 41
16.0
 42
22.0
 44
8.0
 73
     0
 74
     0
 78
     8
140
16.0
141
0.0
143
0.03937
147
5.0
171
     3
172
     1
175
     1
176
     3
177
     3
178
     3
274
     1
279
     2
284
     8
285
     8
286
     8
340
2F73
  0
DIMSTYLE
105
2FD6
330
2F57
100
AcDbSymbolTableRecord
100
AcDbDimStyleTableRecord
  2
XIAO
 70
     0
 41
3.5
 42
3.0
 43
1.0
 44
1.0
 73
     0
 74
     0
 77
     1
 78
     8
140
4.0
141
1.5
143
0.03937007874016
147
1.0
171
     3
172
     1
274
     1
279
     2
284
     8
285
     8
286
     8
340
2F73
  0
DIMSTYLE
105
2FD7
330
2F57
100
AcDbSymbolTableRecord
100
AcDbDimStyleTableRecord
  2
副本_STANDARD
 70
     0
 41
10.0
 73
     0
 74
     0
 77
     1
140
25.0
176
     7
177
     7
274
     1
279
     2
284
     8
285
     8
286
     8
340
2F73
  0
DIMSTYLE
105
2FD8
330
2F57
100
AcDbSymbolTableRecord
100
AcDbDimStyleTableRecord
  2
副本__3__STANDARD
 70
     0
 41
10.0
 73
     0
 77
     1
140
25.0
176
     7
177
     7
274
     1
279
     2
284
     8
285
     8
286
     8
340
2F73
  0
DIMSTYLE
105
2FD9
330
2F57
100
AcDbSymbolTableRecord
100
AcDbDimStyleTableRecord
  2
ISO-25
 70
     0
 41
15.0
 42
5.0
 43
3.75
 44
5.0
 73
     0
 74
     0
 78
     8
140
20.0
141
0.0
143
0.03937007874016
147
2.0
171
     4
172
     1
176
     3
177
     3
178
   256
274
     1
279
     2
284
     8
285
     8
286
     8
340
2F73
  0
DIMSTYLE
105
2FDA
330
2F57
100
AcDbSymbolTableRecord
100
AcDbDimStyleTableRecord
  2
毫米英寸
 70
     0
  4
"
 41
15.0
 42
5.0
 43
3.75
 44
5.0
 73
     0
 74
     0
 78
     8
140
20.0
141
0.0
143
0.03937007874016
147
2.0
170
     1
171
     3
172
     1
176
     3
177
     3
178
   256
274
     1
279
     2
284
     8
285
     8
286
     8
340
2F73
  0
DIMSTYLE
105
2FDB
330
2F57
100
AcDbSymbolTableRecord
100
AcDbDimStyleTableRecord
  2
副本ISO-25
 70
     0
 41
15.0
 42
0.625
 43
3.75
 44
1.25
 73
     0
 77
     1
 78
     8
140
15.0
141
2.5
143
0.03937007874016
147
0.625
171
     1
172
     1
176
     6
177
     6
274
     1
279
     2
284
     8
285
     8
286
     8
340
2F73
  0
DIMSTYLE
105
2FDC
330
2F57
100
AcDbSymbolTableRecord
100
AcDbDimStyleTableRecord
  2
副本__100818_STANDARD
 70
     0
  4
"
 41
16.0
 42
0.0
 44
7.0
 78
     8
140
20.0
143
0.03937
147
5.0
171
     3
172
     1
176
   256
177
   256
178
   256
274
     1
279
     2
284
     8
285
     8
286
     8
340
2F73
  0
ENDTAB
  0
TABLE
  2
BLOCK_RECORD
  5
2F4E
330
0
100
AcDbSymbolTable
 70
    72
  0
BLOCK_RECORD
  5
2F83
102
{ACAD_XDICTIONARY
360
30E0
102
}
330
2F4E
100
AcDbSymbolTableRecord
100
AcDbBlockTableRecord
  2
*Model_Space
340
2F86
 70
     0
280
     1
281
     0
  0
BLOCK_RECORD
  5
2F7F
330
2F4E
100
AcDbSymbolTableRecord
100
AcDbBlockTableRecord
  2
*Paper_Space
340
2F82
 70
     0
280
     1
281
     0
  0
BLOCK_RECORD
  5
2FE2
330
2F4E
100
AcDbSymbolTableRecord
100
AcDbBlockTableRecord
  2
$MODEL_SPACE
340
0
 70
     0
280
     1
281
     0
  0
BLOCK_RECORD
  5
2FE4
330
2F4E
100
AcDbSymbolTableRecord
100
AcDbBlockTableRecord
  2
$PAPER_SPACE
340
0
 70
     0
280
     1
281
     0
  0
BLOCK_RECORD
  5
2FE6
330
2F4E
100
AcDbSymbolTableRecord
100
AcDbBlockTableRecord
  2
GENAXEH
340
0
 70
     0
280
     1
281
     0
  0
BLOCK_RECORD
  5
2FE8
330
2F4E
100
AcDbSymbolTableRecord
100
AcDbBlockTableRecord
  2
*U3
340
0
 70
     0
280
     1
281
     0
  0
BLOCK_RECORD
  5
2FEA
330
2F4E
100
AcDbSymbolTableRecord
100
AcDbBlockTableRecord
  2
*U4
340
0
 70
     0
280
     1
281
     0
  0
BLOCK_RECORD
  5
2FEC
330
2F4E
100
AcDbSymbolTableRecord
100
AcDbBlockTableRecord
  2
*U5
340
0
 70
     0
280
     1
281
     0
  0
BLOCK_RECORD
  5
2FEE
330
2F4E
100
AcDbSymbolTableRecord
100
AcDbBlockTableRecord
  2
*U6
340
0
 70
     0
280
     1
281
     0
  0
BLOCK_RECORD
  5
2FF0
330
2F4E
100
AcDbSymbolTableRecord
100
AcDbBlockTableRecord
  2
*U7
340
0
 70
     0
280
     1
281
     0
  0
BLOCK_RECORD
  5
2FF2
330
2F4E
100
AcDbSymbolTableRecord
100
AcDbBlockTableRecord
  2
*U8
340
0
 70
     0
280
     1
281
     0
  0
BLOCK_RECORD
  5
2FF4
330
2F4E
100
AcDbSymbolTableRecord
100
AcDbBlockTableRecord
  2
*U9
340
0
 70
     0
280
     1
281
     0
  0
BLOCK_RECORD
  5
2FF6
330
2F4E
100
AcDbSymbolTableRecord
100
AcDbBlockTableRecord
  2
_NONE
340
0
 70
     0
280
     1
281
     0
  0
BLOCK_RECORD
  5
2FF8
330
2F4E
100
AcDbSymbolTableRecord
100
AcDbBlockTableRecord
  2
*U11
340
0
 70
     0
280
     1
281
     0
  0
BLOCK_RECORD
  5
2FFA
330
2F4E
100
AcDbSymbolTableRecord
100
AcDbBlockTableRecord
  2
*U12
340
0
 70
     0
280
     1
281
     0
  0
BLOCK_RECORD
  5
2FFC
330
2F4E
100
AcDbSymbolTableRecord
100
AcDbBlockTableRecord
  2
*U13
340
0
 70
     0
280
     1
281
     0
  0
BLOCK_RECORD
  5
2FFE
330
2F4E
100
AcDbSymbolTableRecord
100
AcDbBlockTableRecord
  2
*U14
340
0
 70
     0
280
     1
281
     0
  0
BLOCK_RECORD
  5
3000
330
2F4E
100
AcDbSymbolTableRecord
100
AcDbBlockTableRecord
  2
*U15
340
0
 70
     0
280
     1
281
     0
  0
BLOCK_RECORD
  5
3002
330
2F4E
100
AcDbSymbolTableRecord
100
AcDbBlockTableRecord
  2
*U16
340
0
 70
     0
280
     1
281
     0
  0
BLOCK_RECORD
  5
3004
330
2F4E
100
AcDbSymbolTableRecord
100
AcDbBlockTableRecord
  2
*U17
340
0
 70
     0
280
     1
281
     0
  0
BLOCK_RECORD
  5
3006
330
2F4E
100
AcDbSymbolTableRecord
100
AcDbBlockTableRecord
  2
*U18
340
0
 70
     0
280
     1
281
     0
  0
BLOCK_RECORD
  5
3008
330
2F4E
100
AcDbSymbolTableRecord
100
AcDbBlockTableRecord
  2
*U19
340
0
 70
     0
280
     1
281
     0
  0
BLOCK_RECORD
  5
300A
330
2F4E
100
AcDbSymbolTableRecord
100
AcDbBlockTableRecord
  2
*U20
340
0
 70
     0
280
     1
281
     0
  0
BLOCK_RECORD
  5
300C
330
2F4E
100
AcDbSymbolTableRecord
100
AcDbBlockTableRecord
  2
*U21
340
0
 70
     0
280
     1
281
     0
  0
BLOCK_RECORD
  5
300E
330
2F4E
100
AcDbSymbolTableRecord
100
AcDbBlockTableRecord
  2
*U22
340
0
 70
     0
280
     1
281
     0
  0
BLOCK_RECORD
  5
3010
330
2F4E
100
AcDbSymbolTableRecord
100
AcDbBlockTableRecord
  2
*U23
340
0
 70
     0
280
     1
281
     0
  0
BLOCK_RECORD
  5
3012
330
2F4E
100
AcDbSymbolTableRecord
100
AcDbBlockTableRecord
  2
*D24
340
0
 70
     0
280
     1
281
     0
  0
BLOCK_RECORD
  5
3014
330
2F4E
100
AcDbSymbolTableRecord
100
AcDbBlockTableRecord
  2
*U25
340
0
102
{BLKREFS
331
240C
102
}
 70
     0
280
     1
281
     0
  0
BLOCK_RECORD
  5
3016
330
2F4E
100
AcDbSymbolTableRecord
100
AcDbBlockTableRecord
  2
*D26
340
0
 70
     0
280
     1
281
     0
  0
BLOCK_RECORD
  5
3018
330
2F4E
100
AcDbSymbolTableRecord
100
AcDbBlockTableRecord
  2
*U27
340
0
102
{BLKREFS
331
2456
102
}
 70
     0
280
     1
281
     0
  0
BLOCK_RECORD
  5
301A
330
2F4E
100
AcDbSymbolTableRecord
100
AcDbBlockTableRecord
  2
*D28
340
0
 70
     0
280
     1
281
     0
  0
BLOCK_RECORD
  5
301C
330
2F4E
100
AcDbSymbolTableRecord
100
AcDbBlockTableRecord
  2
*U29
340
0
102
{BLKREFS
331
23C3
102
}
 70
     0
280
     1
281
     0
  0
BLOCK_RECORD
  5
301E
330
2F4E
100
AcDbSymbolTableRecord
100
AcDbBlockTableRecord
  2
*D30
340
0
 70
     0
280
     1
281
     0
  0
BLOCK_RECORD
  5
3020
330
2F4E
100
AcDbSymbolTableRecord
100
AcDbBlockTableRecord
  2
*U31
340
0
102
{BLKREFS
331
2438
102
}
 70
     0
280
     1
281
     0
  0
BLOCK_RECORD
  5
3022
330
2F4E
100
AcDbSymbolTableRecord
100
AcDbBlockTableRecord
  2
*D32
340
0
 70
     0
280
     1
281
     0
  0
BLOCK_RECORD
  5
3024
330
2F4E
100
AcDbSymbolTableRecord
100
AcDbBlockTableRecord
  2
*U33
340
0
102
{BLKREFS
331
2496
102
}
 70
     0
280
     1
281
     0
  0
BLOCK_RECORD
  5
3026
330
2F4E
100
AcDbSymbolTableRecord
100
AcDbBlockTableRecord
  2
*D34
340
0
 70
     0
280
     1
281
     0
  0
BLOCK_RECORD
  5
3028
330
2F4E
100
AcDbSymbolTableRecord
100
AcDbBlockTableRecord
  2
*U35
340
0
102
{BLKREFS
331
24A0
102
}
 70
     0
280
     1
281
     0
  0
BLOCK_RECORD
  5
302A
330
2F4E
100
AcDbSymbolTableRecord
100
AcDbBlockTableRecord
  2
*D36
340
0
 70
     0
280
     1
281
     0
  0
BLOCK_RECORD
  5
302C
330
2F4E
100
AcDbSymbolTableRecord
100
AcDbBlockTableRecord
  2
*U37
340
0
102
{BLKREFS
331
24AA
102
}
 70
     0
280
     1
281
     0
  0
BLOCK_RECORD
  5
302E
330
2F4E
100
AcDbSymbolTableRecord
100
AcDbBlockTableRecord
  2
*U38
340
0
 70
     0
280
     1
281
     0
  0
BLOCK_RECORD
  5
3030
330
2F4E
100
AcDbSymbolTableRecord
100
AcDbBlockTableRecord
  2
*U39
340
0
102
{BLKREFS
331
2E2E
102
}
 70
     0
280
     1
281
     0
  0
BLOCK_RECORD
  5
3032
330
2F4E
100
AcDbSymbolTableRecord
100
AcDbBlockTableRecord
  2
*U40
340
0
102
{BLKREFS
331
2E2F
102
}
 70
     0
280
     1
281
     0
  0
BLOCK_RECORD
  5
3034
330
2F4E
100
AcDbSymbolTableRecord
100
AcDbBlockTableRecord
  2
*U41
340
0
102
{BLKREFS
331
248E
102
}
 70
     0
280
     1
281
     0
  0
BLOCK_RECORD
  5
3036
330
2F4E
100
AcDbSymbolTableRecord
100
AcDbBlockTableRecord
  2
_OBLIQUE
340
0
 70
     0
280
     1
281
     0
  0
BLOCK_RECORD
  5
3038
330
2F4E
100
AcDbSymbolTableRecord
100
AcDbBlockTableRecord
  2
*D43
340
0
 70
     0
280
     1
281
     0
  0
BLOCK_RECORD
  5
303A
330
2F4E
100
AcDbSymbolTableRecord
100
AcDbBlockTableRecord
  2
*D44
340
0
 70
     0
280
     1
281
     0
  0
BLOCK_RECORD
  5
303C
330
2F4E
100
AcDbSymbolTableRecord
100
AcDbBlockTableRecord
  2
*U45
340
0
102
{BLKREFS
331
2E52
102
}
 70
     0
280
     1
281
     0
  0
BLOCK_RECORD
  5
303D
330
2F4E
100
AcDbSymbolTableRecord
100
AcDbBlockTableRecord
  2
*D46
340
0
 70
     0
280
     1
281
     0
  0
BLOCK_RECORD
  5
303F
330
2F4E
100
AcDbSymbolTableRecord
100
AcDbBlockTableRecord
  2
*U47
340
0
102
{BLKREFS
331
2E60
102
}
 70
     0
280
     1
281
     0
  0
BLOCK_RECORD
  5
3040
330
2F4E
100
AcDbSymbolTableRecord
100
AcDbBlockTableRecord
  2
*D48
340
0
 70
     0
280
     1
281
     0
  0
BLOCK_RECORD
  5
3042
330
2F4E
100
AcDbSymbolTableRecord
100
AcDbBlockTableRecord
  2
*U49
340
0
102
{BLKREFS
331
2E6E
102
}
 70
     0
280
     1
281
     0
  0
BLOCK_RECORD
  5
3043
330
2F4E
100
AcDbSymbolTableRecord
100
AcDbBlockTableRecord
  2
*D50
340
0
 70
     0
280
     1
281
     0
  0
BLOCK_RECORD
  5
3045
330
2F4E
100
AcDbSymbolTableRecord
100
AcDbBlockTableRecord
  2
*U51
340
0
102
{BLKREFS
331
2E7C
102
}
 70
     0
280
     1
281
     0
  0
BLOCK_RECORD
  5
3046
330
2F4E
100
AcDbSymbolTableRecord
100
AcDbBlockTableRecord
  2
*D52
340
0
 70
     0
280
     1
281
     0
  0
BLOCK_RECORD
  5
3048
330
2F4E
100
AcDbSymbolTableRecord
100
AcDbBlockTableRecord
  2
*U53
340
0
102
{BLKREFS
331
2E92
102
}
 70
     0
280
     1
281
     0
  0
BLOCK_RECORD
  5
3049
330
2F4E
100
AcDbSymbolTableRecord
100
AcDbBlockTableRecord
  2
*D54
340
0
 70
     0
280
     1
281
     0
  0
BLOCK_RECORD
  5
304B
330
2F4E
100
AcDbSymbolTableRecord
100
AcDbBlockTableRecord
  2
*U55
340
0
102
{BLKREFS
331
2EA0
102
}
 70
     0
280
     1
281
     0
  0
BLOCK_RECORD
  5
304C
330
2F4E
100
AcDbSymbolTableRecord
100
AcDbBlockTableRecord
  2
*D56
340
0
 70
     0
280
     1
281
     0
  0
BLOCK_RECORD
  5
304E
330
2F4E
100
AcDbSymbolTableRecord
100
AcDbBlockTableRecord
  2
*U57
340
0
102
{BLKREFS
331
2EC2
102
}
 70
     0
280
     1
281
     0
  0
BLOCK_RECORD
  5
304F
330
2F4E
100
AcDbSymbolTableRecord
100
AcDbBlockTableRecord
  2
*U58
340
0
 70
     0
280
     1
281
     0
  0
BLOCK_RECORD
  5
3051
330
2F4E
100
AcDbSymbolTableRecord
100
AcDbBlockTableRecord
  2
*U59
340
0
 70
     0
280
     1
281
     0
  0
BLOCK_RECORD
  5
3053
330
2F4E
100
AcDbSymbolTableRecord
100
AcDbBlockTableRecord
  2
*U60
340
0
102
{BLKREFS
331
2D59
102
}
 70
     0
280
     1
281
     0
  0
BLOCK_RECORD
  5
3055
330
2F4E
100
AcDbSymbolTableRecord
100
AcDbBlockTableRecord
  2
*U61
340
0
102
{BLKREFS
331
2D60
102
}
 70
     0
280
     1
281
     0
  0
BLOCK_RECORD
  5
305F
330
2F4E
100
AcDbSymbolTableRecord
100
AcDbBlockTableRecord
  2
*D62
340
0
 70
     0
280
     1
281
     0
  0
BLOCK_RECORD
  5
306C
330
2F4E
100
AcDbSymbolTableRecord
100
AcDbBlockTableRecord
  2
*D63
340
0
 70
     0
280
     1
281
     0
  0
BLOCK_RECORD
  5
3079
330
2F4E
100
AcDbSymbolTableRecord
100
AcDbBlockTableRecord
  2
*D64
340
0
 70
     0
280
     1
281
     0
  0
BLOCK_RECORD
  5
3086
330
2F4E
100
AcDbSymbolTableRecord
100
AcDbBlockTableRecord
  2
*D65
340
0
 70
     0
280
     1
281
     0
  0
BLOCK_RECORD
  5
3093
330
2F4E
100
AcDbSymbolTableRecord
100
AcDbBlockTableRecord
  2
*D66
340
0
 70
     0
280
     1
281
     0
  0
BLOCK_RECORD
  5
30A0
330
2F4E
100
AcDbSymbolTableRecord
100
AcDbBlockTableRecord
  2
*D67
340
0
 70
     0
280
     1
281
     0
  0
BLOCK_RECORD
  5
30AD
330
2F4E
100
AcDbSymbolTableRecord
100
AcDbBlockTableRecord
  2
*D68
340
0
 70
     0
280
     1
281
     0
  0
BLOCK_RECORD
  5
30BA
330
2F4E
100
AcDbSymbolTableRecord
100
AcDbBlockTableRecord
  2
*D69
340
0
 70
     0
280
     1
281
     0
  0
BLOCK_RECORD
  5
30D2
330
2F4E
100
AcDbSymbolTableRecord
100
AcDbBlockTableRecord
  2
*D70
340
0
 70
     0
280
     1
281
     0
  0
BLOCK_RECORD
  5
30E3
330
2F4E
100
AcDbSymbolTableRecord
100
AcDbBlockTableRecord
  2
*D71
340
0
 70
     0
280
     1
281
     0
  0
ENDTAB
  0
ENDSEC
  0
SECTION
  2
BLOCKS
  0
BLOCK
  5
2F84
330
2F83
100
AcDbEntity
  8
0
100
AcDbBlockBegin
  2
*Model_Space
 70
     0
 10
0.0
 20
0.0
 30
0.0
  3
*Model_Space
  1

  0
ENDBLK
  5
2F85
330
2F83
100
AcDbEntity
  8
0
100
AcDbBlockEnd
  0
BLOCK
  5
2F80
330
2F7F
100
AcDbEntity
 67
     1
  8
0
100
AcDbBlockBegin
  2
*Paper_Space
 70
     0
 10
0.0
 20
0.0
 30
0.0
  3
*Paper_Space
  1

  0
ENDBLK
  5
2F81
330
2F7F
100
AcDbEntity
 67
     1
  8
0
100
AcDbBlockEnd
  0
BLOCK
  5
2FE3
330
2FE2
100
AcDbEntity
  8
0
100
AcDbBlockBegin
  2
$MODEL_SPACE
 70
     0
 10
0.0
 20
0.0
 30
0.0
  3
$MODEL_SPACE
  1

  0
ENDBLK
  5
2BA0
330
2FE2
100
AcDbEntity
  8
0
100
AcDbBlockEnd
  0
BLOCK
  5
2FE5
330
2FE4
100
AcDbEntity
  8
0
100
AcDbBlockBegin
  2
$PAPER_SPACE
 70
     0
 10
0.0
 20
0.0
 30
0.0
  3
$PAPER_SPACE
  1

  0
ENDBLK
  5
2B9C
330
2FE4
100
AcDbEntity
  8
0
100
AcDbBlockEnd
  0
BLOCK
  5
2FE7
330
2FE6
100
AcDbEntity
  8
0
100
AcDbBlockBegin
  2
GENAXEH
 70
     0
 10
0.0
 20
0.0
 30
0.0
  3
GENAXEH
  1

  0
LINE
  5
1722
330
2FE6
100
AcDbEntity
  8
0
100
AcDbLine
 10
-1.0
 20
0.0
 30
0.0
 11
1.0
 21
0.0
 31
0.0
  0
ENDBLK
  5
1724
330
2FE6
100
AcDbEntity
  8
0
100
AcDbBlockEnd
  0
BLOCK
  5
2FE9
330
2FE8
100
AcDbEntity
  8
0
100
AcDbBlockBegin
  2
*U3
 70
     1
 10
0.0
 20
0.0
 30
0.0
  3
*U3
  1

  0
TEXT
  5
25AE
330
2FE8
100
AcDbEntity
  8
标注
100
AcDbText
 10
278.1085753334799
 20
188.7031155711957
 30
0.0
 40
0.65
  1
9"
 50
90.0
100
AcDbText
  0
ENDBLK
  5
25B0
330
2FE8
100
AcDbEntity
  8
0
100
AcDbBlockEnd
  0
BLOCK
  5
2FEB
330
2FEA
100
AcDbEntity
  8
0
100
AcDbBlockBegin
  2
*U4
 70
     1
 10
0.0
 20
0.0
 30
0.0
  3
*U4
  1

  0
TEXT
  5
25B2
330
2FEA
100
AcDbEntity
  8
标注
100
AcDbText
 10
259.9666445499046
 20
152.3166958017756
 30
0.0
 40
0.65
  1
28"
100
AcDbText
  0
ENDBLK
  5
25B4
330
2FEA
100
AcDbEntity
  8
0
100
AcDbBlockEnd
  0
BLOCK
  5
2FED
330
2FEC
100
AcDbEntity
  8
0
100
AcDbBlockBegin
  2
*U5
 70
     1
 10
0.0
 20
0.0
 30
0.0
  3
*U5
  1

  0
TEXT
  5
25B6
330
2FEC
100
AcDbEntity
  8
标注
100
AcDbText
 10
259.9971891693277
 20
150.4854921654649
 30
0.0
 40
0.65
  1
30"
100
AcDbText
  0
ENDBLK
  5
25B8
330
2FEC
100
AcDbEntity
  8
0
100
AcDbBlockEnd
  0
BLOCK
  5
2FEF
330
2FEE
100
AcDbEntity
  8
0
100
AcDbBlockBegin
  2
*U6
 70
     1
 10
0.0
 20
0.0
 30
0.0
  3
*U6
  1

  0
TEXT
  5
25BA
330
2FEE
100
AcDbEntity
  8
标注
100
AcDbText
 10
277.9686557463612
 20
163.1443957570238
 30
0.0
 40
0.65
  1
16"
 50
90.0
100
AcDbText
  0
ENDBLK
  5
25BC
330
2FEE
100
AcDbEntity
  8
0
100
AcDbBlockEnd
  0
BLOCK
  5
2FF1
330
2FF0
100
AcDbEntity
  8
0
100
AcDbBlockBegin
  2
*U7
 70
     1
 10
0.0
 20
0.0
 30
0.0
  3
*U7
  1

  0
TEXT
  5
25BE
330
2FF0
100
AcDbEntity
  8
标注
100
AcDbText
 10
279.7068546045301
 20
163.1443957570219
 30
0.0
 40
0.65
  1
18"
 50
90.0
100
AcDbText
  0
ENDBLK
  5
25C0
330
2FF0
100
AcDbEntity
  8
0
100
AcDbBlockEnd
  0
BLOCK
  5
2FF3
330
2FF2
100
AcDbEntity
  8
0
100
AcDbBlockBegin
  2
*U8
 70
     1
 10
0.0
 20
0.0
 30
0.0
  3
*U8
  1

  0
TEXT
  5
25C2
330
2FF2
100
AcDbEntity
  8
标注
100
AcDbText
 10
260.8413425030415
 20
112.6320075107335
 30
0.0
 40
0.65
  1
28 1/8"
100
AcDbText
  0
ENDBLK
  5
25C4
330
2FF2
100
AcDbEntity
  8
0
100
AcDbBlockEnd
  0
BLOCK
  5
2FF5
330
2FF4
100
AcDbEntity
  8
0
100
AcDbBlockBegin
  2
*U9
 70
     1
 10
0.0
 20
0.0
 30
0.0
  3
*U9
  1

  0
TEXT
  5
25C6
330
2FF4
100
AcDbEntity
  8
标注
100
AcDbText
 10
279.3317614640683
 20
121.9863500978319
 30
0.0
 40
0.65
  1
16 1/8"
 50
90.0
100
AcDbText
  0
ENDBLK
  5
25C8
330
2FF4
100
AcDbEntity
  8
0
100
AcDbBlockEnd
  0
BLOCK
  5
2FF7
330
2FF6
100
AcDbEntity
  8
0
100
AcDbBlockBegin
  2
_NONE
 70
     0
 10
0.0
 20
0.0
 30
0.0
  3
_NONE
  1

  0
ENDBLK
  5
1AF0
330
2FF6
100
AcDbEntity
  8
0
100
AcDbBlockEnd
  0
BLOCK
  5
2FF9
330
2FF8
100
AcDbEntity
  8
0
100
AcDbBlockBegin
  2
*U11
 70
     1
 10
0.0
 20
0.0
 30
0.0
  3
*U11
  1

  0
TEXT
  5
25D1
330
2FF8
100
AcDbEntity
  8
标注
100
AcDbText
 10
343.5257971993137
 20
149.5929431051932
 30
0.0
 40
0.65
  1
30"
100
AcDbText
  0
ENDBLK
  5
25D3
330
2FF8
100
AcDbEntity
  8
0
100
AcDbBlockEnd
  0
BLOCK
  5
2FFB
330
2FFA
100
AcDbEntity
  8
0
100
AcDbBlockBegin
  2
*U12
 70
     1
 10
0.0
 20
0.0
 30
0.0
  3
*U12
  1

  0
TEXT
  5
25D5
330
2FFA
100
AcDbEntity
  8
标注
100
AcDbText
 10
343.471630532647
 20
148.3944405888207
 30
0.0
 40
0.65
  1
32"
100
AcDbText
  0
ENDBLK
  5
25D7
330
2FFA
100
AcDbEntity
  8
0
100
AcDbBlockEnd
  0
BLOCK
  5
2FFD
330
2FFC
100
AcDbEntity
  8
0
100
AcDbBlockBegin
  2
*U13
 70
     1
 10
0.0
 20
0.0
 30
0.0
  3
*U13
  1

  0
TEXT
  5
25D9
330
2FFC
100
AcDbEntity
  8
标注
100
AcDbText
 10
362.1603791990839
 20
160.6553142089138
 30
0.0
 40
0.65
  1
16"
 50
90.0
100
AcDbText
  0
ENDBLK
  5
25DB
330
2FFC
100
AcDbEntity
  8
0
100
AcDbBlockEnd
  0
BLOCK
  5
2FFF
330
2FFE
100
AcDbEntity
  8
0
100
AcDbBlockBegin
  2
*U14
 70
     1
 10
0.0
 20
0.0
 30
0.0
  3
*U14
  1

  0
TEXT
  5
25DD
330
2FFE
100
AcDbEntity
  8
标注
100
AcDbText
 10
363.5593100510013
 20
160.6553142089065
 30
0.0
 40
0.65
  1
18"
 50
90.0
100
AcDbText
  0
ENDBLK
  5
25DF
330
2FFE
100
AcDbEntity
  8
0
100
AcDbBlockEnd
  0
BLOCK
  5
3001
330
3000
100
AcDbEntity
  8
0
100
AcDbBlockBegin
  2
*U15
 70
     1
 10
0.0
 20
0.0
 30
0.0
  3
*U15
  1

  0
TEXT
  5
25CD
330
3000
100
AcDbEntity
  8
标注
100
AcDbText
 10
362.2731822072543
 20
184.3666646119905
 30
0.0
 40
0.65
  1
10"
 50
90.0
100
AcDbText
  0
ENDBLK
  5
25CF
330
3000
100
AcDbEntity
  8
0
100
AcDbBlockEnd
  0
BLOCK
  5
3003
330
3002
100
AcDbEntity
  8
0
100
AcDbBlockBegin
  2
*U16
 70
     1
 10
0.0
 20
0.0
 30
0.0
  3
*U16
  1

  0
TEXT
  5
25E1
330
3002
100
AcDbEntity
  8
标注
100
AcDbText
 10
361.4619589239384
 20
120.7834546501419
 30
0.0
 40
0.65
  1
16 1/8"
 50
90.0
100
AcDbText
  0
ENDBLK
  5
25E3
330
3002
100
AcDbEntity
  8
0
100
AcDbBlockEnd
  0
BLOCK
  5
3005
330
3004
100
AcDbEntity
  8
0
100
AcDbBlockBegin
  2
*U17
 70
     1
 10
0.0
 20
0.0
 30
0.0
  3
*U17
  1

  0
TEXT
  5
25E5
330
3004
100
AcDbEntity
  8
标注
100
AcDbText
 10
342.3725157742389
 20
111.9065438515469
 30
0.0
 40
0.65
  1
30 1/8"
100
AcDbText
  0
ENDBLK
  5
25E7
330
3004
100
AcDbEntity
  8
0
100
AcDbBlockEnd
  0
BLOCK
  5
3007
330
3006
100
AcDbEntity
  8
0
100
AcDbBlockBegin
  2
*U18
 70
     1
 10
0.0
 20
0.0
 30
0.0
  3
*U18
  1

  0
TEXT
  5
25ED
330
3006
100
AcDbEntity
  8
标注
100
AcDbText
 10
392.6571932235167
 20
113.0324838479009
 30
0.0
 40
0.65
  1
30 1/8"
100
AcDbText
  0
ENDBLK
  5
25EF
330
3006
100
AcDbEntity
  8
0
100
AcDbBlockEnd
  0
BLOCK
  5
3009
330
3008
100
AcDbEntity
  8
0
100
AcDbBlockBegin
  2
*U19
 70
     1
 10
0.0
 20
0.0
 30
0.0
  3
*U19
  1

  0
TEXT
  5
25F1
330
3008
100
AcDbEntity
  8
标注
100
AcDbText
 10
412.3782794901662
 20
121.7766809349519
 30
0.0
 40
0.65
  1
16 1/8"
 50
90.0
100
AcDbText
  0
ENDBLK
  5
25F3
330
3008
100
AcDbEntity
  8
0
100
AcDbBlockEnd
  0
BLOCK
  5
300B
330
300A
100
AcDbEntity
  8
0
100
AcDbBlockBegin
  2
*U20
 70
     1
 10
0.0
 20
0.0
 30
0.0
  3
*U20
  1

  0
TEXT
  5
25FD
330
300A
100
AcDbEntity
  8
标注
100
AcDbText
 10
393.8488598901834
 20
147.4036207908977
 30
0.0
 40
0.65
  1
30"
100
AcDbText
  0
ENDBLK
  5
25FF
330
300A
100
AcDbEntity
  8
0
100
AcDbBlockEnd
  0
BLOCK
  5
300D
330
300C
100
AcDbEntity
  8
0
100
AcDbBlockBegin
  2
*U21
 70
     1
 10
0.0
 20
0.0
 30
0.0
  3
*U21
  1

  0
TEXT
  5
25F5
330
300C
100
AcDbEntity
  8
标注
100
AcDbText
 10
393.7946932235168
 20
145.9982744764491
 30
0.0
 40
0.65
  1
32"
100
AcDbText
  0
ENDBLK
  5
25F7
330
300C
100
AcDbEntity
  8
0
100
AcDbBlockEnd
  0
BLOCK
  5
300F
330
300E
100
AcDbEntity
  8
0
100
AcDbBlockBegin
  2
*U22
 70
     1
 10
0.0
 20
0.0
 30
0.0
  3
*U22
  1

  0
TEXT
  5
2601
330
300E
100
AcDbEntity
  8
标注
100
AcDbText
 10
412.558431369425
 20
157.9729541185304
 30
0.0
 40
0.65
  1
16"
 50
90.0
100
AcDbText
  0
ENDBLK
  5
2603
330
300E
100
AcDbEntity
  8
0
100
AcDbBlockEnd
  0
BLOCK
  5
3011
330
3010
100
AcDbEntity
  8
0
100
AcDbBlockBegin
  2
*U23
 70
     1
 10
0.0
 20
0.0
 30
0.0
  3
*U23
  1

  0
TEXT
  5
25F9
330
3010
100
AcDbEntity
  8
标注
100
AcDbText
 10
413.8709643087928
 20
158.0123281559575
 30
0.0
 40
0.65
  1
18"
 50
90.0
100
AcDbText
  0
ENDBLK
  5
25FB
330
3010
100
AcDbEntity
  8
0
100
AcDbBlockEnd
  0
BLOCK
  5
3013
330
3012
100
AcDbEntity
  8
0
100
AcDbBlockBegin
  2
*D24
 70
     1
 10
0.0
 20
0.0
 30
0.0
  3
*D24
  1

  0
LINE
  5
2406
330
3012
100
AcDbEntity
  8
标注
  6
ByBlock
100
AcDbLine
 10
469.1833936714238
 20
187.376976522278
 30
0.0
 11
470.6786519143721
 21
187.376976522278
 31
0.0
  0
LINE
  5
2407
330
3012
100
AcDbEntity
  8
标注
  6
ByBlock
100
AcDbLine
 10
469.2156246584472
 20
178.4345346740448
 30
0.0
 11
470.6786519143721
 21
178.4345346740448
 31
0.0
  0
LINE
  5
2408
330
3012
100
AcDbEntity
  8
标注
  6
ByBlock
100
AcDbLine
 10
470.3586519143721
 20
186.726976522278
 30
0.0
 11
470.3586519143721
 21
183.4323651646352
 31
0.0
  0
LINE
  5
2409
330
3012
100
AcDbEntity
  8
标注
  6
ByBlock
100
AcDbLine
 10
470.3586519143721
 20
179.0845346740448
 30
0.0
 11
470.3586519143721
 21
182.1656984979685
 31
0.0
  0
SOLID
  5
240A
330
3012
100
AcDbEntity
  8
标注
100
AcDbTrace
 10
470.2503185810388
 20
186.726976522278
 30
0.0
 11
470.4669852477055
 21
186.726976522278
 31
0.0
 12
470.3586519143721
 22
187.376976522278
 32
0.0
 13
470.3586519143721
 23
187.376976522278
 33
0.0
  0
SOLID
  5
240B
330
3012
100
AcDbEntity
  8
标注
100
AcDbTrace
 10
470.2503185810388
 20
179.0845346740448
 30
0.0
 11
470.4669852477055
 21
179.0845346740448
 31
0.0
 12
470.3586519143721
 22
178.4345346740448
 32
0.0
 13
470.3586519143721
 23
178.4345346740448
 33
0.0
  0
INSERT
  5
240C
330
3012
100
AcDbEntity
  8
标注
100
AcDbBlockReference
  2
*U25
 10
0.0
 20
0.0
 30
0.0
  0
POINT
  5
240D
330
3012
100
AcDbEntity
  8
DEFPOINTS
 62
     0
100
AcDbPoint
 10
468.3033936714237
 20
187.376976522278
 30
0.0
  0
POINT
  5
240E
330
3012
100
AcDbEntity
  8
DEFPOINTS
 62
     0
100
AcDbPoint
 10
468.3356246584472
 20
178.4345346740448
 30
0.0
  0
POINT
  5
240F
330
3012
100
AcDbEntity
  8
DEFPOINTS
 62
     0
100
AcDbPoint
 10
470.3586519143721
 20
178.4345346740448
 30
0.0
  0
ENDBLK
  5
2028
330
3012
100
AcDbEntity
  8
0
100
AcDbBlockEnd
  0
BLOCK
  5
3015
330
3014
100
AcDbEntity
  8
0
100
AcDbBlockBegin
  2
*U25
 70
     1
 10
0.0
 20
0.0
 30
0.0
  3
*U25
  1

  0
TEXT
  5
261B
330
3014
100
AcDbEntity
  8
标注
100
AcDbText
 10
470.683651914372
 20
182.3656984979685
 30
0.0
 40
0.65
  1
9"
 50
90.0
100
AcDbText
  0
ENDBLK
  5
261D
330
3014
100
AcDbEntity
  8
0
100
AcDbBlockEnd
  0
BLOCK
  5
3017
330
3016
100
AcDbEntity
  8
0
100
AcDbBlockBegin
  2
*D26
 70
     1
 10
0.0
 20
0.0
 30
0.0
  3
*D26
  1

  0
LINE
  5
2450
330
3016
100
AcDbEntity
  8
标注
  6
ByBlock
100
AcDbLine
 10
439.3033936715402
 20
148.7823281559921
 30
0.0
 11
439.3033936715402
 21
147.7406797977844
 31
0.0
  0
LINE
  5
2451
330
3016
100
AcDbEntity
  8
标注
  6
ByBlock
100
AcDbLine
 10
467.3033936714275
 20
148.7823281559921
 30
0.0
 11
467.3033936714275
 21
147.7406797977844
 31
0.0
  0
LINE
  5
2452
330
3016
100
AcDbEntity
  8
标注
  6
ByBlock
100
AcDbLine
 10
439.9533936715402
 20
148.0606797977843
 30
0.0
 11
452.3450603381506
 21
148.0606797977843
 31
0.0
  0
LINE
  5
2453
330
3016
100
AcDbEntity
  8
标注
  6
ByBlock
100
AcDbLine
 10
466.6533936714276
 20
148.0606797977843
 30
0.0
 11
454.2617270048173
 21
148.0606797977843
 31
0.0
  0
SOLID
  5
2454
330
3016
100
AcDbEntity
  8
标注
100
AcDbTrace
 10
439.9533936715402
 20
148.1690131311176
 30
0.0
 11
439.9533936715402
 21
147.952346464451
 31
0.0
 12
439.3033936715402
 22
148.0606797977843
 32
0.0
 13
439.3033936715402
 23
148.0606797977843
 33
0.0
  0
SOLID
  5
2455
330
3016
100
AcDbEntity
  8
标注
100
AcDbTrace
 10
466.6533936714276
 20
148.1690131311176
 30
0.0
 11
466.6533936714276
 21
147.952346464451
 31
0.0
 12
467.3033936714275
 22
148.0606797977843
 32
0.0
 13
467.3033936714275
 23
148.0606797977843
 33
0.0
  0
INSERT
  5
2456
330
3016
100
AcDbEntity
  8
标注
100
AcDbBlockReference
  2
*U27
 10
0.0
 20
0.0
 30
0.0
  0
POINT
  5
2457
330
3016
100
AcDbEntity
  8
DEFPOINTS
 62
     0
100
AcDbPoint
 10
439.3033936715402
 20
149.662328155992
 30
0.0
  0
POINT
  5
2458
330
3016
100
AcDbEntity
  8
DEFPOINTS
 62
     0
100
AcDbPoint
 10
467.3033936714275
 20
149.662328155992
 30
0.0
  0
POINT
  5
2459
330
3016
100
AcDbEntity
  8
DEFPOINTS
 62
     0
100
AcDbPoint
 10
467.3033936714275
 20
148.0606797977843
 30
0.0
  0
ENDBLK
  5
2397
330
3016
100
AcDbEntity
  8
0
100
AcDbBlockEnd
  0
BLOCK
  5
3019
330
3018
100
AcDbEntity
  8
0
100
AcDbBlockBegin
  2
*U27
 70
     1
 10
0.0
 20
0.0
 30
0.0
  3
*U27
  1

  0
TEXT
  5
262B
330
3018
100
AcDbEntity
  8
标注
100
AcDbText
 10
452.5450603381504
 20
147.7356797977843
 30
0.0
 40
0.65
  1
28"
100
AcDbText
  0
ENDBLK
  5
262D
330
3018
100
AcDbEntity
  8
0
100
AcDbBlockEnd
  0
BLOCK
  5
301B
330
301A
100
AcDbEntity
  8
0
100
AcDbBlockBegin
  2
*D28
 70
     1
 10
0.0
 20
0.0
 30
0.0
  3
*D28
  1

  0
LINE
  5
23BD
330
301A
100
AcDbEntity
  8
标注
  6
ByBlock
100
AcDbLine
 10
438.3033936715437
 20
148.7823281559921
 30
0.0
 11
438.3033936715437
 21
146.2459540882776
 31
0.0
  0
LINE
  5
23BE
330
301A
100
AcDbEntity
  8
标注
  6
ByBlock
100
AcDbLine
 10
468.3033936714237
 20
148.7823281559921
 30
0.0
 11
468.3033936714237
 21
146.2459540882776
 31
0.0
  0
LINE
  5
23BF
330
301A
100
AcDbEntity
  8
标注
  6
ByBlock
100
AcDbLine
 10
438.9533936715438
 20
146.5659540882777
 30
0.0
 11
452.3992270048172
 21
146.5659540882777
 31
0.0
  0
LINE
  5
23C0
330
301A
100
AcDbEntity
  8
标注
  6
ByBlock
100
AcDbLine
 10
467.6533936714237
 20
146.5659540882777
 30
0.0
 11
454.2075603381506
 21
146.5659540882777
 31
0.0
  0
SOLID
  5
23C1
330
301A
100
AcDbEntity
  8
标注
100
AcDbTrace
 10
438.9533936715438
 20
146.674287421611
 30
0.0
 11
438.9533936715438
 21
146.4576207549443
 31
0.0
 12
438.3033936715437
 22
146.5659540882777
 32
0.0
 13
438.3033936715437
 23
146.5659540882777
 33
0.0
  0
SOLID
  5
23C2
330
301A
100
AcDbEntity
  8
标注
100
AcDbTrace
 10
467.6533936714237
 20
146.674287421611
 30
0.0
 11
467.6533936714237
 21
146.4576207549443
 31
0.0
 12
468.3033936714237
 22
146.5659540882777
 32
0.0
 13
468.3033936714237
 23
146.5659540882777
 33
0.0
  0
INSERT
  5
23C3
330
301A
100
AcDbEntity
  8
标注
100
AcDbBlockReference
  2
*U29
 10
0.0
 20
0.0
 30
0.0
  0
POINT
  5
23C4
330
301A
100
AcDbEntity
  8
DEFPOINTS
 62
     0
100
AcDbPoint
 10
438.3033936715437
 20
149.662328155992
 30
0.0
  0
POINT
  5
23C5
330
301A
100
AcDbEntity
  8
DEFPOINTS
 62
     0
100
AcDbPoint
 10
468.3033936714237
 20
149.662328155992
 30
0.0
  0
POINT
  5
23C6
330
301A
100
AcDbEntity
  8
DEFPOINTS
 62
     0
100
AcDbPoint
 10
468.3033936714237
 20
146.5659540882777
 30
0.0
  0
ENDBLK
  5
23B1
330
301A
100
AcDbEntity
  8
0
100
AcDbBlockEnd
  0
BLOCK
  5
301D
330
301C
100
AcDbEntity
  8
0
100
AcDbBlockBegin
  2
*U29
 70
     1
 10
0.0
 20
0.0
 30
0.0
  3
*U29
  1

  0
TEXT
  5
2617
330
301C
100
AcDbEntity
  8
标注
100
AcDbText
 10
452.599227004817
 20
146.2409540882777
 30
0.0
 40
0.65
  1
30"
100
AcDbText
  0
ENDBLK
  5
2619
330
301C
100
AcDbEntity
  8
0
100
AcDbBlockEnd
  0
BLOCK
  5
301F
330
301E
100
AcDbEntity
  8
0
100
AcDbBlockBegin
  2
*D30
 70
     1
 10
0.0
 20
0.0
 30
0.0
  3
*D30
  1

  0
LINE
  5
2432
330
301E
100
AcDbEntity
  8
标注
  6
ByBlock
100
AcDbLine
 10
469.1833936714238
 20
150.6623281559884
 30
0.0
 11
470.274023868088
 21
150.6623281559884
 31
0.0
  0
LINE
  5
2433
330
301E
100
AcDbEntity
  8
标注
  6
ByBlock
100
AcDbLine
 10
469.1833936714238
 20
166.6623281559246
 30
0.0
 11
470.274023868088
 21
166.6623281559246
 31
0.0
  0
LINE
  5
2434
330
301E
100
AcDbEntity
  8
标注
  6
ByBlock
100
AcDbLine
 10
469.9540238680881
 20
151.3123281559884
 30
0.0
 11
469.9540238680881
 21
157.8123281559566
 31
0.0
  0
LINE
  5
2435
330
301E
100
AcDbEntity
  8
标注
  6
ByBlock
100
AcDbLine
 10
469.9540238680881
 20
166.0123281559247
 30
0.0
 11
469.9540238680881
 21
159.5123281559566
 31
0.0
  0
SOLID
  5
2436
330
301E
100
AcDbEntity
  8
标注
100
AcDbTrace
 10
469.8456905347548
 20
151.3123281559884
 30
0.0
 11
470.0623572014213
 21
151.3123281559884
 31
0.0
 12
469.9540238680881
 22
150.6623281559884
 32
0.0
 13
469.9540238680881
 23
150.6623281559884
 33
0.0
  0
SOLID
  5
2437
330
301E
100
AcDbEntity
  8
标注
100
AcDbTrace
 10
469.8456905347548
 20
166.0123281559247
 30
0.0
 11
470.0623572014213
 21
166.0123281559247
 31
0.0
 12
469.9540238680881
 22
166.6623281559246
 32
0.0
 13
469.9540238680881
 23
166.6623281559246
 33
0.0
  0
INSERT
  5
2438
330
301E
100
AcDbEntity
  8
标注
100
AcDbBlockReference
  2
*U31
 10
0.0
 20
0.0
 30
0.0
  0
POINT
  5
2439
330
301E
100
AcDbEntity
  8
DEFPOINTS
 62
     0
100
AcDbPoint
 10
468.3033936714237
 20
150.6623281559884
 30
0.0
  0
POINT
  5
243A
330
301E
100
AcDbEntity
  8
DEFPOINTS
 62
     0
100
AcDbPoint
 10
468.3033936714237
 20
166.6623281559246
 30
0.0
  0
POINT
  5
243B
330
301E
100
AcDbEntity
  8
DEFPOINTS
 62
     0
100
AcDbPoint
 10
469.9540238680881
 20
166.6623281559246
 30
0.0
  0
ENDBLK
  5
23CB
330
301E
100
AcDbEntity
  8
0
100
AcDbBlockEnd
  0
BLOCK
  5
3021
330
3020
100
AcDbEntity
  8
0
100
AcDbBlockBegin
  2
*U31
 70
     1
 10
0.0
 20
0.0
 30
0.0
  3
*U31
  1

  0
TEXT
  5
2627
330
3020
100
AcDbEntity
  8
标注
100
AcDbText
 10
470.279023868088
 20
158.0123281559567
 30
0.0
 40
0.65
  1
16"
 50
90.0
100
AcDbText
  0
ENDBLK
  5
2629
330
3020
100
AcDbEntity
  8
0
100
AcDbBlockEnd
  0
BLOCK
  5
3023
330
3022
100
AcDbEntity
  8
0
100
AcDbBlockBegin
  2
*D32
 70
     1
 10
0.0
 20
0.0
 30
0.0
  3
*D32
  1

  0
LINE
  5
2490
330
3022
100
AcDbEntity
  8
标注
  6
ByBlock
100
AcDbLine
 10
469.1833936714238
 20
149.662328155992
 30
0.0
 11
471.5790639646423
 21
149.662328155992
 31
0.0
  0
LINE
  5
2491
330
3022
100
AcDbEntity
  8
标注
  6
ByBlock
100
AcDbLine
 10
469.1833936714238
 20
167.6623281559193
 30
0.0
 11
471.5790639646423
 21
167.6623281559193
 31
0.0
  0
LINE
  5
2492
330
3022
100
AcDbEntity
  8
标注
  6
ByBlock
100
AcDbLine
 10
471.2590639646424
 20
150.312328155992
 30
0.0
 11
471.2590639646424
 21
157.8123281559557
 31
0.0
  0
LINE
  5
2493
330
3022
100
AcDbEntity
  8
标注
  6
ByBlock
100
AcDbLine
 10
471.2590639646424
 20
167.0123281559193
 30
0.0
 11
471.2590639646424
 21
159.5123281559557
 31
0.0
  0
SOLID
  5
2494
330
3022
100
AcDbEntity
  8
标注
100
AcDbTrace
 10
471.1507306313087
 20
150.312328155992
 30
0.0
 11
471.3673972979757
 21
150.312328155992
 31
0.0
 12
471.2590639646424
 22
149.662328155992
 32
0.0
 13
471.2590639646424
 23
149.662328155992
 33
0.0
  0
SOLID
  5
2495
330
3022
100
AcDbEntity
  8
标注
100
AcDbTrace
 10
471.1507306313087
 20
167.0123281559193
 30
0.0
 11
471.3673972979757
 21
167.0123281559193
 31
0.0
 12
471.2590639646424
 22
167.6623281559193
 32
0.0
 13
471.2590639646424
 23
167.6623281559193
 33
0.0
  0
INSERT
  5
2496
330
3022
100
AcDbEntity
  8
标注
100
AcDbBlockReference
  2
*U33
 10
0.0
 20
0.0
 30
0.0
  0
POINT
  5
2497
330
3022
100
AcDbEntity
  8
DEFPOINTS
 62
     0
100
AcDbPoint
 10
468.3033936714237
 20
149.662328155992
 30
0.0
  0
POINT
  5
2498
330
3022
100
AcDbEntity
  8
DEFPOINTS
 62
     0
100
AcDbPoint
 10
468.3033936714237
 20
167.6623281559193
 30
0.0
  0
POINT
  5
2499
330
3022
100
AcDbEntity
  8
DEFPOINTS
 62
     0
100
AcDbPoint
 10
471.2590639646424
 20
167.6623281559193
 30
0.0
  0
ENDBLK
  5
23E5
330
3022
100
AcDbEntity
  8
0
100
AcDbBlockEnd
  0
BLOCK
  5
3025
330
3024
100
AcDbEntity
  8
0
100
AcDbBlockBegin
  2
*U33
 70
     1
 10
0.0
 20
0.0
 30
0.0
  3
*U33
  1

  0
TEXT
  5
2633
330
3024
100
AcDbEntity
  8
标注
100
AcDbText
 10
471.5840639646422
 20
158.0123281559558
 30
0.0
 40
0.65
  1
18"
 50
90.0
100
AcDbText
  0
ENDBLK
  5
2635
330
3024
100
AcDbEntity
  8
0
100
AcDbBlockEnd
  0
BLOCK
  5
3027
330
3026
100
AcDbEntity
  8
0
100
AcDbBlockBegin
  2
*D34
 70
     1
 10
0.0
 20
0.0
 30
0.0
  3
*D34
  1

  0
LINE
  5
249A
330
3026
100
AcDbEntity
  8
标注
  6
ByBlock
100
AcDbLine
 10
438.5580278539006
 20
116.4931990971385
 30
0.0
 11
438.5580278539006
 21
114.5769542962978
 31
0.0
  0
LINE
  5
249B
330
3026
100
AcDbEntity
  8
标注
  6
ByBlock
100
AcDbLine
 10
466.7155081687512
 20
116.4931990971385
 30
0.0
 11
466.7155081687512
 21
114.5769542962978
 31
0.0
  0
LINE
  5
249C
330
3026
100
AcDbEntity
  8
标注
  6
ByBlock
100
AcDbLine
 10
439.2080278539006
 20
114.8969542962978
 30
0.0
 11
450.4867680113257
 21
114.8969542962978
 31
0.0
  0
LINE
  5
249D
330
3026
100
AcDbEntity
  8
标注
  6
ByBlock
100
AcDbLine
 10
466.0655081687512
 20
114.8969542962978
 30
0.0
 11
454.7867680113257
 21
114.8969542962978
 31
0.0
  0
SOLID
  5
249E
330
3026
100
AcDbEntity
  8
标注
100
AcDbTrace
 10
439.2080278539006
 20
115.0052876296311
 30
0.0
 11
439.2080278539006
 21
114.7886209629644
 31
0.0
 12
438.5580278539006
 22
114.8969542962978
 32
0.0
 13
438.5580278539006
 23
114.8969542962978
 33
0.0
  0
SOLID
  5
249F
330
3026
100
AcDbEntity
  8
标注
100
AcDbTrace
 10
466.0655081687512
 20
115.0052876296311
 30
0.0
 11
466.0655081687512
 21
114.7886209629644
 31
0.0
 12
466.7155081687512
 22
114.8969542962978
 32
0.0
 13
466.7155081687512
 23
114.8969542962978
 33
0.0
  0
INSERT
  5
24A0
330
3026
100
AcDbEntity
  8
标注
100
AcDbBlockReference
  2
*U35
 10
0.0
 20
0.0
 30
0.0
  0
POINT
  5
24A1
330
3026
100
AcDbEntity
  8
DEFPOINTS
 62
     0
100
AcDbPoint
 10
438.5580278539006
 20
117.3731990971385
 30
0.0
  0
POINT
  5
24A2
330
3026
100
AcDbEntity
  8
DEFPOINTS
 62
     0
100
AcDbPoint
 10
466.7155081687512
 20
117.3731990971385
 30
0.0
  0
POINT
  5
24A3
330
3026
100
AcDbEntity
  8
DEFPOINTS
 62
     0
100
AcDbPoint
 10
466.7155081687512
 20
114.8969542962978
 30
0.0
  0
ENDBLK
  5
245D
330
3026
100
AcDbEntity
  8
0
100
AcDbBlockEnd
  0
BLOCK
  5
3029
330
3028
100
AcDbEntity
  8
0
100
AcDbBlockBegin
  2
*U35
 70
     1
 10
0.0
 20
0.0
 30
0.0
  3
*U35
  1

  0
TEXT
  5
2637
330
3028
100
AcDbEntity
  8
标注
100
AcDbText
 10
450.6867680113258
 20
114.5719542962978
 30
0.0
 40
0.65
  1
28 1/8"
100
AcDbText
  0
ENDBLK
  5
2639
330
3028
100
AcDbEntity
  8
0
100
AcDbBlockEnd
  0
BLOCK
  5
302B
330
302A
100
AcDbEntity
  8
0
100
AcDbBlockBegin
  2
*D36
 70
     1
 10
0.0
 20
0.0
 30
0.0
  3
*D36
  1

  0
LINE
  5
24A4
330
302A
100
AcDbEntity
  8
标注
  6
ByBlock
100
AcDbLine
 10
467.5955081687511
 20
117.3731990971385
 30
0.0
 11
469.5154776513411
 21
117.3731990971385
 31
0.0
  0
LINE
  5
24A5
330
302A
100
AcDbEntity
  8
标注
  6
ByBlock
100
AcDbLine
 10
467.5955081687511
 20
133.5306794120327
 30
0.0
 11
469.5154776513411
 21
133.5306794120327
 31
0.0
  0
LINE
  5
24A6
330
302A
100
AcDbEntity
  8
标注
  6
ByBlock
100
AcDbLine
 10
469.1954776513409
 20
118.0231990971385
 30
0.0
 11
469.1954776513409
 21
123.4102725879189
 31
0.0
  0
LINE
  5
24A7
330
302A
100
AcDbEntity
  8
标注
  6
ByBlock
100
AcDbLine
 10
469.1954776513409
 20
132.8806794120327
 30
0.0
 11
469.1954776513409
 21
127.4936059212523
 31
0.0
  0
SOLID
  5
24A8
330
302A
100
AcDbEntity
  8
标注
100
AcDbTrace
 10
469.0871443180077
 20
118.0231990971385
 30
0.0
 11
469.3038109846745
 21
118.0231990971385
 31
0.0
 12
469.1954776513409
 22
117.3731990971385
 32
0.0
 13
469.1954776513409
 23
117.3731990971385
 33
0.0
  0
SOLID
  5
24A9
330
302A
100
AcDbEntity
  8
标注
100
AcDbTrace
 10
469.0871443180077
 20
132.8806794120327
 30
0.0
 11
469.3038109846745
 21
132.8806794120327
 31
0.0
 12
469.1954776513409
 22
133.5306794120327
 32
0.0
 13
469.1954776513409
 23
133.5306794120327
 33
0.0
  0
INSERT
  5
24AA
330
302A
100
AcDbEntity
  8
标注
100
AcDbBlockReference
  2
*U37
 10
0.0
 20
0.0
 30
0.0
  0
POINT
  5
24AB
330
302A
100
AcDbEntity
  8
DEFPOINTS
 62
     0
100
AcDbPoint
 10
466.7155081687512
 20
117.3731990971385
 30
0.0
  0
POINT
  5
24AC
330
302A
100
AcDbEntity
  8
DEFPOINTS
 62
     0
100
AcDbPoint
 10
466.7155081687512
 20
133.5306794120327
 30
0.0
  0
POINT
  5
24AD
330
302A
100
AcDbEntity
  8
DEFPOINTS
 62
     0
100
AcDbPoint
 10
469.1954776513409
 20
133.5306794120327
 30
0.0
  0
ENDBLK
  5
2477
330
302A
100
AcDbEntity
  8
0
100
AcDbBlockEnd
  0
BLOCK
  5
302D
330
302C
100
AcDbEntity
  8
0
100
AcDbBlockBegin
  2
*U37
 70
     1
 10
0.0
 20
0.0
 30
0.0
  3
*U37
  1

  0
TEXT
  5
263B
330
302C
100
AcDbEntity
  8
标注
100
AcDbText
 10
469.5204776513411
 20
123.610272587919
 30
0.0
 40
0.65
  1
16 1/8"
 50
90.0
100
AcDbText
  0
ENDBLK
  5
263D
330
302C
100
AcDbEntity
  8
0
100
AcDbBlockEnd
  0
BLOCK
  5
302F
330
302E
100
AcDbEntity
  8
0
100
AcDbBlockBegin
  2
*U38
 70
     1
 10
0.0
 20
0.0
 30
0.0
  3
*U38
  1

  0
CIRCLE
  5
260E
330
302E
100
AcDbEntity
  8
细实线
100
AcDbCircle
 10
453.303393671482
 20
162.1347691008238
 30
0.0
 40
2.28346456692
  0
ENDBLK
  5
2610
330
302E
100
AcDbEntity
  8
0
100
AcDbBlockEnd
  0
BLOCK
  5
3031
330
3030
100
AcDbEntity
  8
0
100
AcDbBlockBegin
  2
*U39
 70
     1
 10
0.0
 20
0.0
 30
0.0
  3
*U39
  1

  0
TEXT
  5
261F
330
3030
100
AcDbEntity
  8
标注
100
AcDbText
 10
450.7476695609605
 20
174.7145677770366
 30
0.0
 40
0.7874015748031497
  1
FRONT VIEW
100
AcDbText
  0
ENDBLK
  5
2621
330
3030
100
AcDbEntity
  8
0
100
AcDbBlockEnd
  0
BLOCK
  5
3033
330
3032
100
AcDbEntity
  8
0
100
AcDbBlockBegin
  2
*U40
 70
     1
 10
0.0
 20
0.0
 30
0.0
  3
*U40
  1

  0
TEXT
  5
2623
330
3032
100
AcDbEntity
  8
标注
100
AcDbText
 10
448.5741763582031
 20
142.2692820316137
 30
0.0
 40
0.7874015748031497
  1
OVERHEAD VIEW
100
AcDbText
  0
ENDBLK
  5
2625
330
3032
100
AcDbEntity
  8
0
100
AcDbBlockEnd
  0
BLOCK
  5
3035
330
3034
100
AcDbEntity
  8
0
100
AcDbBlockBegin
  2
*U41
 70
     1
 10
0.0
 20
0.0
 30
0.0
  3
*U41
  1

  0
TEXT
  5
262F
330
3034
100
AcDbEntity
  8
标注
100
AcDbText
 10
454.410309116666
 20
109.1110711691899
 30
0.0
 40
0.7874015748031497
  1
 CUTOUT
100
AcDbText
  0
ENDBLK
  5
2631
330
3034
100
AcDbEntity
  8
0
100
AcDbBlockEnd
  0
BLOCK
  5
3037
330
3036
100
AcDbEntity
  8
0
100
AcDbBlockBegin
  2
_OBLIQUE
 70
     0
 10
0.0
 20
0.0
 30
0.0
  3
_OBLIQUE
  1

  0
LINE
  5
2CC4
330
3036
100
AcDbEntity
  8
0
  6
ByBlock
 62
     0
100
AcDbLine
 10
-0.5
 20
-0.5
 30
0.0
 11
0.5
 21
0.5
 31
0.0
  0
ENDBLK
  5
2CC5
330
3036
100
AcDbEntity
  8
0
100
AcDbBlockEnd
  0
BLOCK
  5
3039
330
3038
100
AcDbEntity
  8
0
100
AcDbBlockBegin
  2
*D43
 70
     1
 10
0.0
 20
0.0
 30
0.0
  3
*D43
  1

  0
LINE
  5
2F27
330
3038
100
AcDbEntity
  8
标注
100
AcDbLine
 10
494.1959123343665
 20
110.5320730951389
 30
0.0
 11
494.1959123343665
 21
108.6754279819315
 31
0.0
  0
LINE
  5
2F28
330
3038
100
AcDbEntity
  8
标注
100
AcDbLine
 10
524.3535894996282
 20
110.5320730951389
 30
0.0
 11
524.3535894996282
 21
108.6754279819315
 31
0.0
  0
LINE
  5
2F29
330
3038
100
AcDbEntity
  8
标注
100
AcDbLine
 10
494.8459123343665
 20
108.9954279819315
 30
0.0
 11
507.1789175836641
 21
108.9954279819315
 31
0.0
  0
LINE
  5
2F2A
330
3038
100
AcDbEntity
  8
标注
100
AcDbLine
 10
523.7035894996282
 20
108.9954279819315
 30
0.0
 11
511.3705842503308
 21
108.9954279819315
 31
0.0
  0
SOLID
  5
2F2B
330
3038
100
AcDbEntity
  8
标注
100
AcDbTrace
 10
494.8459123343665
 20
109.1037613152648
 30
0.0
 11
494.8459123343665
 21
108.8870946485981
 31
0.0
 12
494.1959123343665
 22
108.9954279819315
 32
0.0
 13
494.1959123343665
 23
108.9954279819315
 33
0.0
  0
SOLID
  5
2F2C
330
3038
100
AcDbEntity
  8
标注
100
AcDbTrace
 10
523.7035894996282
 20
109.1037613152648
 30
0.0
 11
523.7035894996282
 21
108.8870946485981
 31
0.0
 12
524.3535894996282
 22
108.9954279819315
 32
0.0
 13
524.3535894996282
 23
108.9954279819315
 33
0.0
  0
TEXT
  5
2F4D
330
3038
100
AcDbEntity
  8
标注
100
AcDbText
 10
507.975
 20
107.845
 30
0.0
 40
0.65
  1
30 1/8"
100
AcDbText
  0
POINT
  5
2F2E
330
3038
100
AcDbEntity
  8
DEFPOINTS
 62
     0
100
AcDbPoint
 10
494.1959123343665
 20
111.4120730951388
 30
0.0
  0
POINT
  5
2F2F
330
3038
100
AcDbEntity
  8
DEFPOINTS
 62
     0
100
AcDbPoint
 10
524.3535894996282
 20
111.4120730951388
 30
0.0
  0
POINT
  5
2F30
330
3038
100
AcDbEntity
  8
DEFPOINTS
 62
     0
100
AcDbPoint
 10
524.3535894996282
 20
108.9954279819315
 30
0.0
  0
ENDBLK
  5
2E33
330
3038
100
AcDbEntity
  8
0
100
AcDbBlockEnd
  0
BLOCK
  5
303B
330
303A
100
AcDbEntity
  8
0
100
AcDbBlockBegin
  2
*D44
 70
     1
 10
0.0
 20
0.0
 30
0.0
  3
*D44
  1

  0
LINE
  5
2E4C
330
303A
100
AcDbEntity
  8
标注
100
AcDbLine
 10
525.2335894996283
 20
111.4120730951388
 30
0.0
 11
527.3424959236406
 21
111.4120730951388
 31
0.0
  0
LINE
  5
2E4D
330
303A
100
AcDbEntity
  8
标注
100
AcDbLine
 10
525.2335894996283
 20
130.111383911705
 30
0.0
 11
527.3424959236406
 21
130.111383911705
 31
0.0
  0
LINE
  5
2E4E
330
303A
100
AcDbEntity
  8
标注
100
AcDbLine
 10
527.0224959236402
 20
112.0620730951389
 30
0.0
 11
527.0224959236402
 21
118.611728503422
 31
0.0
  0
LINE
  5
2E4F
330
303A
100
AcDbEntity
  8
标注
100
AcDbLine
 10
527.0224959236402
 20
129.461383911705
 30
0.0
 11
527.0224959236402
 21
122.911728503422
 31
0.0
  0
SOLID
  5
2E50
330
303A
100
AcDbEntity
  8
标注
100
AcDbTrace
 10
526.9141625903071
 20
112.0620730951389
 30
0.0
 11
527.1308292569739
 21
112.0620730951389
 31
0.0
 12
527.0224959236402
 22
111.4120730951388
 32
0.0
 13
527.0224959236402
 23
111.4120730951388
 33
0.0
  0
SOLID
  5
2E51
330
303A
100
AcDbEntity
  8
标注
100
AcDbTrace
 10
526.9141625903071
 20
129.461383911705
 30
0.0
 11
527.1308292569739
 21
129.461383911705
 31
0.0
 12
527.0224959236402
 22
130.111383911705
 32
0.0
 13
527.0224959236402
 23
130.111383911705
 33
0.0
  0
INSERT
  5
2E52
330
303A
100
AcDbEntity
  8
标注
100
AcDbBlockReference
  2
*U45
 10
0.0
 20
0.0
 30
0.0
  0
POINT
  5
2E53
330
303A
100
AcDbEntity
  8
DEFPOINTS
 62
     0
100
AcDbPoint
 10
524.3535894996282
 20
111.4120730951388
 30
0.0
  0
POINT
  5
2E54
330
303A
100
AcDbEntity
  8
DEFPOINTS
 62
     0
100
AcDbPoint
 10
524.3535894996282
 20
130.111383911705
 30
0.0
  0
POINT
  5
2E55
330
303A
100
AcDbEntity
  8
DEFPOINTS
 62
     0
100
AcDbPoint
 10
527.0224959236402
 20
130.111383911705
 30
0.0
  0
ENDBLK
  5
2E4B
330
303A
100
AcDbEntity
  8
0
100
AcDbBlockEnd
  0
BLOCK
  5
3057
330
303C
100
AcDbEntity
  8
0
100
AcDbBlockBegin
  2
*U45
 70
     1
 10
0.0
 20
0.0
 30
0.0
  3
*U45
  1

  0
TEXT
  5
2F32
330
303C
100
AcDbEntity
  8
标注
100
AcDbText
 10
527.3474959236405
 20
118.8117285034221
 30
0.0
 40
0.65
  1
18 3/4"
 50
90.0
100
AcDbText
  0
ENDBLK
  5
2F34
330
303C
100
AcDbEntity
  8
0
100
AcDbBlockEnd
  0
BLOCK
  5
303E
330
303D
100
AcDbEntity
  8
0
100
AcDbBlockBegin
  2
*D46
 70
     1
 10
0.0
 20
0.0
 30
0.0
  3
*D46
  1

  0
LINE
  5
2E5A
330
303D
100
AcDbEntity
  8
标注
100
AcDbLine
 10
494.9926207923243
 20
152.8812508101219
 30
0.0
 11
494.9926207923243
 21
148.6666860484413
 31
0.0
  0
LINE
  5
2E5B
330
303D
100
AcDbEntity
  8
标注
100
AcDbLine
 10
524.9928176425986
 20
152.8812508101254
 30
0.0
 11
524.9928176425986
 21
148.6666860484413
 31
0.0
  0
LINE
  5
2E5C
330
303D
100
AcDbEntity
  8
标注
100
AcDbLine
 10
495.6426207923242
 20
148.9866860484413
 30
0.0
 11
509.0885525507949
 21
148.9866860484413
 31
0.0
  0
LINE
  5
2E5D
330
303D
100
AcDbEntity
  8
标注
100
AcDbLine
 10
524.3428176425983
 20
148.9866860484413
 30
0.0
 11
510.896885884128
 21
148.9866860484413
 31
0.0
  0
SOLID
  5
2E5E
330
303D
100
AcDbEntity
  8
标注
100
AcDbTrace
 10
495.6426207923242
 20
149.0950193817746
 30
0.0
 11
495.6426207923242
 21
148.878352715108
 31
0.0
 12
494.9926207923243
 22
148.9866860484413
 32
0.0
 13
494.9926207923243
 23
148.9866860484413
 33
0.0
  0
SOLID
  5
2E5F
330
303D
100
AcDbEntity
  8
标注
100
AcDbTrace
 10
524.3428176425983
 20
149.0950193817746
 30
0.0
 11
524.3428176425983
 21
148.878352715108
 31
0.0
 12
524.9928176425986
 22
148.9866860484413
 32
0.0
 13
524.9928176425986
 23
148.9866860484413
 33
0.0
  0
INSERT
  5
2E60
330
303D
100
AcDbEntity
  8
标注
100
AcDbBlockReference
  2
*U47
 10
0.0
 20
0.0
 30
0.0
  0
POINT
  5
2E61
330
303D
100
AcDbEntity
  8
DEFPOINTS
 62
     0
100
AcDbPoint
 10
494.9926207923243
 20
153.7612508101219
 30
0.0
  0
POINT
  5
2E62
330
303D
100
AcDbEntity
  8
DEFPOINTS
 62
     0
100
AcDbPoint
 10
524.9928176425986
 20
153.7612508101254
 30
0.0
  0
POINT
  5
2E63
330
303D
100
AcDbEntity
  8
DEFPOINTS
 62
     0
100
AcDbPoint
 10
524.9928176425986
 20
148.9866860484413
 30
0.0
  0
ENDBLK
  5
2E59
330
303D
100
AcDbEntity
  8
0
100
AcDbBlockEnd
  0
BLOCK
  5
3058
330
303F
100
AcDbEntity
  8
0
100
AcDbBlockBegin
  2
*U47
 70
     1
 10
0.0
 20
0.0
 30
0.0
  3
*U47
  1

  0
TEXT
  5
2F36
330
303F
100
AcDbEntity
  8
标注
100
AcDbText
 10
509.2885525507949
 20
148.6616860484413
 30
0.0
 40
0.65
  1
30"
100
AcDbText
  0
ENDBLK
  5
2F38
330
303F
100
AcDbEntity
  8
0
100
AcDbBlockEnd
  0
BLOCK
  5
3041
330
3040
100
AcDbEntity
  8
0
100
AcDbBlockBegin
  2
*D48
 70
     1
 10
0.0
 20
0.0
 30
0.0
  3
*D48
  1

  0
LINE
  5
2E68
330
3040
100
AcDbEntity
  8
标注
100
AcDbLine
 10
493.5556129183066
 20
150.3812508101328
 30
0.0
 11
493.5556129183066
 21
146.4143077629969
 31
0.0
  0
LINE
  5
2E69
330
3040
100
AcDbEntity
  8
标注
100
AcDbLine
 10
526.4298254759271
 20
150.3812508064151
 30
0.0
 11
526.4298254759271
 21
146.4143077629969
 31
0.0
  0
LINE
  5
2E6A
330
3040
100
AcDbEntity
  8
标注
100
AcDbLine
 10
494.2056129183066
 20
146.7343077629969
 30
0.0
 11
507.7343858637837
 21
146.7343077629969
 31
0.0
  0
LINE
  5
2E6B
330
3040
100
AcDbEntity
  8
标注
100
AcDbLine
 10
525.7798254759271
 20
146.7343077629969
 30
0.0
 11
512.2510525304504
 21
146.7343077629969
 31
0.0
  0
SOLID
  5
2E6C
330
3040
100
AcDbEntity
  8
标注
100
AcDbTrace
 10
494.2056129183066
 20
146.8426410963303
 30
0.0
 11
494.2056129183066
 21
146.6259744296636
 31
0.0
 12
493.5556129183066
 22
146.7343077629969
 32
0.0
 13
493.5556129183066
 23
146.7343077629969
 33
0.0
  0
SOLID
  5
2E6D
330
3040
100
AcDbEntity
  8
标注
100
AcDbTrace
 10
525.7798254759271
 20
146.8426410963303
 30
0.0
 11
525.7798254759271
 21
146.6259744296636
 31
0.0
 12
526.4298254759271
 22
146.7343077629969
 32
0.0
 13
526.4298254759271
 23
146.7343077629969
 33
0.0
  0
INSERT
  5
2E6E
330
3040
100
AcDbEntity
  8
标注
100
AcDbBlockReference
  2
*U49
 10
0.0
 20
0.0
 30
0.0
  0
POINT
  5
2E6F
330
3040
100
AcDbEntity
  8
DEFPOINTS
 62
     0
100
AcDbPoint
 10
493.5556129183066
 20
151.2612508101328
 30
0.0
  0
POINT
  5
2E70
330
3040
100
AcDbEntity
  8
DEFPOINTS
 62
     0
100
AcDbPoint
 10
526.4298254759271
 20
151.2612508064151
 30
0.0
  0
POINT
  5
2E71
330
3040
100
AcDbEntity
  8
DEFPOINTS
 62
     0
100
AcDbPoint
 10
526.4298254759271
 20
146.7343077629969
 30
0.0
  0
ENDBLK
  5
2E67
330
3040
100
AcDbEntity
  8
0
100
AcDbBlockEnd
  0
BLOCK
  5
3059
330
3042
100
AcDbEntity
  8
0
100
AcDbBlockBegin
  2
*U49
 70
     1
 10
0.0
 20
0.0
 30
0.0
  3
*U49
  1

  0
TEXT
  5
2F3A
330
3042
100
AcDbEntity
  8
标注
100
AcDbText
 10
507.9343858637836
 20
146.4093077629969
 30
0.0
 40
0.65
  1
32 7/8"
100
AcDbText
  0
ENDBLK
  5
2F3C
330
3042
100
AcDbEntity
  8
0
100
AcDbBlockEnd
  0
BLOCK
  5
3044
330
3043
100
AcDbEntity
  8
0
100
AcDbBlockBegin
  2
*D50
 70
     1
 10
0.0
 20
0.0
 30
0.0
  3
*D50
  1

  0
LINE
  5
2E76
330
3043
100
AcDbEntity
  8
标注
100
AcDbLine
 10
525.8728176425986
 20
153.7612508101254
 30
0.0
 11
528.1325275634968
 21
153.7612508101254
 31
0.0
  0
LINE
  5
2E77
330
3043
100
AcDbEntity
  8
标注
100
AcDbLine
 10
525.8728176425986
 20
169.76125081006
 30
0.0
 11
528.1325275634968
 21
169.76125081006
 31
0.0
  0
LINE
  5
2E78
330
3043
100
AcDbEntity
  8
标注
100
AcDbLine
 10
527.8125275634968
 20
154.4112508101254
 30
0.0
 11
527.8125275634968
 21
160.9112508100928
 31
0.0
  0
LINE
  5
2E79
330
3043
100
AcDbEntity
  8
标注
100
AcDbLine
 10
527.8125275634968
 20
169.11125081006
 30
0.0
 11
527.8125275634968
 21
162.6112508100928
 31
0.0
  0
SOLID
  5
2E7A
330
3043
100
AcDbEntity
  8
标注
100
AcDbTrace
 10
527.7041942301637
 20
154.4112508101254
 30
0.0
 11
527.9208608968303
 21
154.4112508101254
 31
0.0
 12
527.8125275634968
 22
153.7612508101254
 32
0.0
 13
527.8125275634968
 23
153.7612508101254
 33
0.0
  0
SOLID
  5
2E7B
330
3043
100
AcDbEntity
  8
标注
100
AcDbTrace
 10
527.7041942301637
 20
169.11125081006
 30
0.0
 11
527.9208608968303
 21
169.11125081006
 31
0.0
 12
527.8125275634968
 22
169.76125081006
 32
0.0
 13
527.8125275634968
 23
169.76125081006
 33
0.0
  0
INSERT
  5
2E7C
330
3043
100
AcDbEntity
  8
标注
100
AcDbBlockReference
  2
*U51
 10
0.0
 20
0.0
 30
0.0
  0
POINT
  5
2E7D
330
3043
100
AcDbEntity
  8
DEFPOINTS
 62
     0
100
AcDbPoint
 10
524.9928176425986
 20
153.7612508101254
 30
0.0
  0
POINT
  5
2E7E
330
3043
100
AcDbEntity
  8
DEFPOINTS
 62
     0
100
AcDbPoint
 10
524.9928176425986
 20
169.76125081006
 30
0.0
  0
POINT
  5
2E7F
330
3043
100
AcDbEntity
  8
DEFPOINTS
 62
     0
100
AcDbPoint
 10
527.8125275634968
 20
169.76125081006
 30
0.0
  0
ENDBLK
  5
2E75
330
3043
100
AcDbEntity
  8
0
100
AcDbBlockEnd
  0
BLOCK
  5
305A
330
3045
100
AcDbEntity
  8
0
100
AcDbBlockBegin
  2
*U51
 70
     1
 10
0.0
 20
0.0
 30
0.0
  3
*U51
  1

  0
TEXT
  5
2F3E
330
3045
100
AcDbEntity
  8
标注
100
AcDbText
 10
528.1375275634967
 20
161.1112508100928
 30
0.0
 40
0.65
  1
16"
 50
90.0
100
AcDbText
  0
ENDBLK
  5
2F40
330
3045
100
AcDbEntity
  8
0
100
AcDbBlockEnd
  0
BLOCK
  5
3047
330
3046
100
AcDbEntity
  8
0
100
AcDbBlockBegin
  2
*D52
 70
     1
 10
0.0
 20
0.0
 30
0.0
  3
*D52
  1

  0
LINE
  5
2E8C
330
3046
100
AcDbEntity
  8
标注
100
AcDbLine
 10
510.8727192174335
 20
150.5112508101376
 30
0.0
 11
530.0918274283786
 21
150.5112508101376
 31
0.0
  0
LINE
  5
2E8D
330
3046
100
AcDbEntity
  8
标注
100
AcDbLine
 10
527.3098255166185
 20
171.2612508100527
 30
0.0
 11
530.0918274283786
 21
171.2612508100527
 31
0.0
  0
LINE
  5
2E8E
330
3046
100
AcDbEntity
  8
标注
100
AcDbLine
 10
529.7718274283786
 20
151.1612508101377
 30
0.0
 11
529.7718274283786
 21
158.6820841434285
 31
0.0
  0
LINE
  5
2E8F
330
3046
100
AcDbEntity
  8
标注
100
AcDbLine
 10
529.7718274283786
 20
170.6112508100526
 30
0.0
 11
529.7718274283786
 21
163.0904174767619
 31
0.0
  0
SOLID
  5
2E90
330
3046
100
AcDbEntity
  8
标注
100
AcDbTrace
 10
529.663494095045
 20
151.1612508101377
 30
0.0
 11
529.8801607617121
 21
151.1612508101377
 31
0.0
 12
529.7718274283786
 22
150.5112508101376
 32
0.0
 13
529.7718274283786
 23
150.5112508101376
 33
0.0
  0
SOLID
  5
2E91
330
3046
100
AcDbEntity
  8
标注
100
AcDbTrace
 10
529.663494095045
 20
170.6112508100526
 30
0.0
 11
529.8801607617121
 21
170.6112508100526
 31
0.0
 12
529.7718274283786
 22
171.2612508100527
 32
0.0
 13
529.7718274283786
 23
171.2612508100527
 33
0.0
  0
INSERT
  5
2E92
330
3046
100
AcDbEntity
  8
标注
100
AcDbBlockReference
  2
*U53
 10
0.0
 20
0.0
 30
0.0
  0
POINT
  5
2E93
330
3046
100
AcDbEntity
  8
DEFPOINTS
 62
     0
100
AcDbPoint
 10
509.9927192174335
 20
150.5112508101376
 30
0.0
  0
POINT
  5
2E94
330
3046
100
AcDbEntity
  8
DEFPOINTS
 62
     0
100
AcDbPoint
 10
526.4298255166185
 20
171.2612508100527
 30
0.0
  0
POINT
  5
2E95
330
3046
100
AcDbEntity
  8
DEFPOINTS
 62
     0
100
AcDbPoint
 10
529.7718274283786
 20
171.2612508100527
 30
0.0
  0
ENDBLK
  5
2E8B
330
3046
100
AcDbEntity
  8
0
100
AcDbBlockEnd
  0
BLOCK
  5
305B
330
3048
100
AcDbEntity
  8
0
100
AcDbBlockBegin
  2
*U53
 70
     1
 10
0.0
 20
0.0
 30
0.0
  3
*U53
  1

  0
TEXT
  5
2F42
330
3048
100
AcDbEntity
  8
标注
100
AcDbText
 10
530.0968274283786
 20
158.8820841434286
 30
0.0
 40
0.65
  1
20 3/4"
 50
90.0
100
AcDbText
  0
ENDBLK
  5
2F44
330
3048
100
AcDbEntity
  8
0
100
AcDbBlockEnd
  0
BLOCK
  5
304A
330
3049
100
AcDbEntity
  8
0
100
AcDbBlockBegin
  2
*D54
 70
     1
 10
0.0
 20
0.0
 30
0.0
  3
*D54
  1

  0
LINE
  5
2E9A
330
3049
100
AcDbEntity
  8
标注
100
AcDbLine
 10
527.3098255166185
 20
180.4518403099853
 30
0.0
 11
528.4706933696693
 21
180.4518403099853
 31
0.0
  0
LINE
  5
2E9B
330
3049
100
AcDbEntity
  8
标注
100
AcDbLine
 10
527.3098255166185
 20
188.4518403099527
 30
0.0
 11
528.4706933696693
 21
188.4518403099527
 31
0.0
  0
LINE
  5
2E9C
330
3049
100
AcDbEntity
  8
标注
100
AcDbLine
 10
528.1506933696695
 20
181.1018403099854
 30
0.0
 11
528.1506933696695
 21
183.8185069766357
 31
0.0
  0
LINE
  5
2E9D
330
3049
100
AcDbEntity
  8
标注
100
AcDbLine
 10
528.1506933696695
 20
187.8018403099527
 30
0.0
 11
528.1506933696695
 21
185.0851736433024
 31
0.0
  0
SOLID
  5
2E9E
330
3049
100
AcDbEntity
  8
标注
100
AcDbTrace
 10
528.0423600363359
 20
181.1018403099854
 30
0.0
 11
528.2590267030029
 21
181.1018403099854
 31
0.0
 12
528.1506933696695
 22
180.4518403099853
 32
0.0
 13
528.1506933696695
 23
180.4518403099853
 33
0.0
  0
SOLID
  5
2E9F
330
3049
100
AcDbEntity
  8
标注
100
AcDbTrace
 10
528.0423600363359
 20
187.8018403099527
 30
0.0
 11
528.2590267030029
 21
187.8018403099527
 31
0.0
 12
528.1506933696695
 22
188.4518403099527
 32
0.0
 13
528.1506933696695
 23
188.4518403099527
 33
0.0
  0
INSERT
  5
2EA0
330
3049
100
AcDbEntity
  8
标注
100
AcDbBlockReference
  2
*U55
 10
0.0
 20
0.0
 30
0.0
  0
POINT
  5
2EA1
330
3049
100
AcDbEntity
  8
DEFPOINTS
 62
     0
100
AcDbPoint
 10
526.4298255166185
 20
180.4518403099853
 30
0.0
  0
POINT
  5
2EA2
330
3049
100
AcDbEntity
  8
DEFPOINTS
 62
     0
100
AcDbPoint
 10
526.4298255166185
 20
188.4518403099527
 30
0.0
  0
POINT
  5
2EA3
330
3049
100
AcDbEntity
  8
DEFPOINTS
 62
     0
100
AcDbPoint
 10
528.1506933696695
 20
188.4518403099527
 30
0.0
  0
ENDBLK
  5
2E99
330
3049
100
AcDbEntity
  8
0
100
AcDbBlockEnd
  0
BLOCK
  5
305C
330
304B
100
AcDbEntity
  8
0
100
AcDbBlockBegin
  2
*U55
 70
     1
 10
0.0
 20
0.0
 30
0.0
  3
*U55
  1

  0
TEXT
  5
2F46
330
304B
100
AcDbEntity
  8
标注
100
AcDbText
 10
528.4756933696693
 20
184.0185069766357
 30
0.0
 40
0.65
  1
8"
 50
90.0
100
AcDbText
  0
ENDBLK
  5
2F48
330
304B
100
AcDbEntity
  8
0
100
AcDbBlockEnd
  0
BLOCK
  5
304D
330
304C
100
AcDbEntity
  8
0
100
AcDbBlockBegin
  2
*D56
 70
     1
 10
0.0
 20
0.0
 30
0.0
  3
*D56
  1

  0
LINE
  5
2EBC
330
304C
100
AcDbEntity
  8
标注
100
AcDbLine
 10
527.3663210034677
 20
179.4006194055975
 30
0.0
 11
530.1500934486409
 21
179.4006194055975
 31
0.0
  0
LINE
  5
2EBD
330
304C
100
AcDbEntity
  8
标注
100
AcDbLine
 10
527.3098255166185
 20
188.4518403099527
 30
0.0
 11
530.1500934486409
 21
188.4518403099527
 31
0.0
  0
LINE
  5
2EBE
330
304C
100
AcDbEntity
  8
标注
100
AcDbLine
 10
529.8300934486412
 20
180.0506194055975
 30
0.0
 11
529.8300934486412
 21
183.2928965244418
 31
0.0
  0
LINE
  5
2EBF
330
304C
100
AcDbEntity
  8
标注
100
AcDbLine
 10
529.8300934486412
 20
187.8018403099527
 30
0.0
 11
529.8300934486412
 21
184.5595631911084
 31
0.0
  0
SOLID
  5
2EC0
330
304C
100
AcDbEntity
  8
标注
100
AcDbTrace
 10
529.7217601153078
 20
180.0506194055975
 30
0.0
 11
529.9384267819744
 21
180.0506194055975
 31
0.0
 12
529.8300934486412
 22
179.4006194055975
 32
0.0
 13
529.8300934486412
 23
179.4006194055975
 33
0.0
  0
SOLID
  5
2EC1
330
304C
100
AcDbEntity
  8
标注
100
AcDbTrace
 10
529.7217601153078
 20
187.8018403099527
 30
0.0
 11
529.9384267819744
 21
187.8018403099527
 31
0.0
 12
529.8300934486412
 22
188.4518403099527
 32
0.0
 13
529.8300934486412
 23
188.4518403099527
 33
0.0
  0
INSERT
  5
2EC2
330
304C
100
AcDbEntity
  8
标注
100
AcDbBlockReference
  2
*U57
 10
0.0
 20
0.0
 30
0.0
  0
POINT
  5
2EC3
330
304C
100
AcDbEntity
  8
DEFPOINTS
 62
     0
100
AcDbPoint
 10
526.4863210034677
 20
179.4006194055975
 30
0.0
  0
POINT
  5
2EC4
330
304C
100
AcDbEntity
  8
DEFPOINTS
 62
     0
100
AcDbPoint
 10
526.4298255166185
 20
188.4518403099527
 30
0.0
  0
POINT
  5
2EC5
330
304C
100
AcDbEntity
  8
DEFPOINTS
 62
     0
100
AcDbPoint
 10
529.8300934486412
 20
188.4518403099527
 30
0.0
  0
ENDBLK
  5
2EA7
330
304C
100
AcDbEntity
  8
0
100
AcDbBlockEnd
  0
BLOCK
  5
305D
330
304E
100
AcDbEntity
  8
0
100
AcDbBlockBegin
  2
*U57
 70
     1
 10
0.0
 20
0.0
 30
0.0
  3
*U57
  1

  0
TEXT
  5
2F4A
330
304E
100
AcDbEntity
  8
标注
100
AcDbText
 10
530.1550934486408
 20
183.4928965244417
 30
0.0
 40
0.65
  1
9"
 50
90.0
100
AcDbText
  0
ENDBLK
  5
2F4C
330
304E
100
AcDbEntity
  8
0
100
AcDbBlockEnd
  0
BLOCK
  5
3050
330
304F
100
AcDbEntity
  8
0
100
AcDbBlockBegin
  2
*U58
 70
     1
 10
0.0
 20
0.0
 30
0.0
  3
*U58
  1

  0
CIRCLE
  5
2F18
330
304F
100
AcDbEntity
  8
0
100
AcDbCircle
 10
8.687017554562771
 20
53.82157510295292
 30
0.0
 40
2.28346456692
  0
ENDBLK
  5
2F1A
330
304F
100
AcDbEntity
  8
0
100
AcDbBlockEnd
  0
BLOCK
  5
3052
330
3051
100
AcDbEntity
  8
0
100
AcDbBlockBegin
  2
*U59
 70
     1
 10
0.0
 20
0.0
 30
0.0
  3
*U59
  1

  0
CIRCLE
  5
2F1C
330
3051
100
AcDbEntity
  8
0
100
AcDbCircle
 10
24.18711597970105
 20
53.82157510295292
 30
0.0
 40
2.28346456692
  0
ENDBLK
  5
2F1E
330
3051
100
AcDbEntity
  8
0
100
AcDbBlockEnd
  0
BLOCK
  5
3054
330
3053
100
AcDbEntity
  8
0
100
AcDbBlockBegin
  2
*U60
 70
     1
 10
0.0
 20
0.0
 30
0.0
  3
*U60
  1

  0
CIRCLE
  5
2F20
330
3053
100
AcDbEntity
  8
0
100
AcDbCircle
 10
502.2426207922952
 20
165.2336917549609
 30
0.0
 40
2.28346456692
  0
ENDBLK
  5
2F22
330
3053
100
AcDbEntity
  8
0
100
AcDbBlockEnd
  0
BLOCK
  5
3056
330
3055
100
AcDbEntity
  8
0
100
AcDbBlockBegin
  2
*U61
 70
     1
 10
0.0
 20
0.0
 30
0.0
  3
*U61
  1

  0
CIRCLE
  5
2F24
330
3055
100
AcDbEntity
  8
0
100
AcDbCircle
 10
517.7427192174336
 20
165.2336917549609
 30
0.0
 40
2.28346456692
  0
ENDBLK
  5
2F26
330
3055
100
AcDbEntity
  8
0
100
AcDbBlockEnd
  0
BLOCK
  5
306A
330
305F
100
AcDbEntity
  8
0
100
AcDbBlockBegin
  2
*D62
 70
     1
 10
0.0
 20
0.0
 30
0.0
  3
*D62
  1

  0
LINE
  5
3202
330
305F
100
AcDbEntity
  8
标注
440
 16777216
370
    -2
100
AcDbLine
 10
836.3855071829421
 20
481.9040744516342
 30
0.0
 11
836.3855071829421
 21
480.0474293384365
 31
0.0
  0
LINE
  5
3203
330
305F
100
AcDbEntity
  8
标注
440
 16777216
370
    -2
100
AcDbLine
 10
866.5431843480831
 20
481.9040744516342
 30
0.0
 11
866.5431843480831
 21
480.0474293384365
 31
0.0
  0
LINE
  5
3204
330
305F
100
AcDbEntity
  8
标注
440
 16777216
370
    -2
100
AcDbLine
 10
837.0355071829422
 20
480.3674293384365
 30
0.0
 11
850.0414944694691
 21
480.3674293384365
 31
0.0
  0
LINE
  5
3205
330
305F
100
AcDbEntity
  8
标注
440
 16777216
370
    -2
100
AcDbLine
 10
865.8931843480832
 20
480.3674293384365
 30
0.0
 11
852.8871970615561
 21
480.3674293384365
 31
0.0
  0
SOLID
  5
3206
330
305F
100
AcDbEntity
  8
标注
440
 16777216
100
AcDbTrace
 10
837.0355071829422
 20
480.4757626717698
 30
0.0
 11
837.0355071829422
 21
480.2590960051031
 31
0.0
 12
836.3855071829421
 22
480.3674293384365
 32
0.0
 13
836.3855071829421
 23
480.3674293384365
 33
0.0
  0
SOLID
  5
3207
330
305F
100
AcDbEntity
  8
标注
440
 16777216
100
AcDbTrace
 10
865.8931843480832
 20
480.4757626717698
 30
0.0
 11
865.8931843480832
 21
480.2590960051031
 31
0.0
 12
866.5431843480831
 22
480.3674293384365
 32
0.0
 13
866.5431843480831
 23
480.3674293384365
 33
0.0
  0
MTEXT
  5
3208
330
305F
100
AcDbEntity
  8
标注
440
 16777216
100
AcDbMText
 10
851.4643457655127
 20
480.3674293384365
 30
0.0
 40
0.65
 41
0.0
 46
0.0
 71
     5
 72
     1
  1
\A1;30 1/8
 73
     1
 44
1.0
  0
POINT
  5
3209
330
305F
100
AcDbEntity
  8
DEFPOINTS
 62
     0
440
 16777216
100
AcDbPoint
 10
836.3855071829421
 20
482.7840744516342
 30
0.0
  0
POINT
  5
320A
330
305F
100
AcDbEntity
  8
DEFPOINTS
 62
     0
440
 16777216
100
AcDbPoint
 10
866.5431843480831
 20
482.7840744516342
 30
0.0
  0
POINT
  5
320B
330
305F
100
AcDbEntity
  8
DEFPOINTS
 62
     0
440
 16777216
100
AcDbPoint
 10
866.5431843480831
 20
480.3674293384365
 30
0.0
  0
ENDBLK
  5
306B
330
305F
100
AcDbEntity
  8
0
100
AcDbBlockEnd
  0
BLOCK
  5
3077
330
306C
100
AcDbEntity
  8
0
100
AcDbBlockBegin
  2
*D63
 70
     1
 10
0.0
 20
0.0
 30
0.0
  3
*D63
  1

  0
LINE
  5
31F8
330
306C
100
AcDbEntity
  8
标注
440
 16777216
370
    -2
100
AcDbLine
 10
867.4231843480832
 20
482.7840744516342
 30
0.0
 11
869.5320907720848
 21
482.7840744516342
 31
0.0
  0
LINE
  5
31F9
330
306C
100
AcDbEntity
  8
标注
440
 16777216
370
    -2
100
AcDbLine
 10
867.4231843480832
 20
501.4833852681256
 30
0.0
 11
869.5320907720848
 21
501.4833852681256
 31
0.0
  0
LINE
  5
31FA
330
306C
100
AcDbEntity
  8
标注
440
 16777216
370
    -2
100
AcDbLine
 10
869.2120907720848
 20
483.4340744516341
 30
0.0
 11
869.2120907720848
 21
490.7428021654733
 31
0.0
  0
LINE
  5
31FB
330
306C
100
AcDbEntity
  8
标注
440
 16777216
370
    -2
100
AcDbLine
 10
869.2120907720848
 20
500.8333852681255
 30
0.0
 11
869.2120907720848
 21
493.5246575542865
 31
0.0
  0
SOLID
  5
31FC
330
306C
100
AcDbEntity
  8
标注
440
 16777216
100
AcDbTrace
 10
869.1037574387515
 20
483.4340744516341
 30
0.0
 11
869.3204241054182
 21
483.4340744516341
 31
0.0
 12
869.2120907720848
 22
482.7840744516342
 32
0.0
 13
869.2120907720848
 23
482.7840744516342
 33
0.0
  0
SOLID
  5
31FD
330
306C
100
AcDbEntity
  8
标注
440
 16777216
100
AcDbTrace
 10
869.1037574387515
 20
500.8333852681255
 30
0.0
 11
869.3204241054182
 21
500.8333852681255
 31
0.0
 12
869.2120907720848
 22
501.4833852681256
 32
0.0
 13
869.2120907720848
 23
501.4833852681256
 33
0.0
  0
MTEXT
  5
31FE
330
306C
100
AcDbEntity
  8
标注
440
 16777216
100
AcDbMText
 10
869.2120907720848
 20
492.1337298598799
 30
0.0
 40
0.65
 41
0.0
 46
0.0
 71
     5
 72
     1
  1
\A1;18 3/4
 11
0.0000000000000001
 21
1.0
 31
0.0
 73
     1
 44
1.0
  0
POINT
  5
31FF
330
306C
100
AcDbEntity
  8
DEFPOINTS
 62
     0
440
 16777216
100
AcDbPoint
 10
866.5431843480831
 20
482.7840744516342
 30
0.0
  0
POINT
  5
3200
330
306C
100
AcDbEntity
  8
DEFPOINTS
 62
     0
440
 16777216
100
AcDbPoint
 10
866.5431843480831
 20
501.4833852681256
 30
0.0
  0
POINT
  5
3201
330
306C
100
AcDbEntity
  8
DEFPOINTS
 62
     0
440
 16777216
100
AcDbPoint
 10
869.2120907720848
 20
501.4833852681256
 30
0.0
  0
ENDBLK
  5
3078
330
306C
100
AcDbEntity
  8
0
100
AcDbBlockEnd
  0
BLOCK
  5
3084
330
3079
100
AcDbEntity
  8
0
100
AcDbBlockBegin
  2
*D64
 70
     1
 10
0.0
 20
0.0
 30
0.0
  3
*D64
  1

  0
LINE
  5
31C4
330
3079
100
AcDbEntity
  8
标注
440
 16777216
370
    -2
100
AcDbLine
 10
837.1822156408963
 20
524.2532521664478
 30
0.0
 11
837.1822156408963
 21
520.0386874047863
 31
0.0
  0
LINE
  5
31C5
330
3079
100
AcDbEntity
  8
标注
440
 16777216
370
    -2
100
AcDbLine
 10
867.1824124910509
 20
524.2532521664514
 30
0.0
 11
867.1824124910509
 21
520.0386874047863
 31
0.0
  0
LINE
  5
31C6
330
3079
100
AcDbEntity
  8
标注
440
 16777216
370
    -2
100
AcDbLine
 10
837.8322156408962
 20
520.3586874047863
 30
0.0
 11
851.4948140659736
 21
520.3586874047863
 31
0.0
  0
LINE
  5
31C7
330
3079
100
AcDbEntity
  8
标注
440
 16777216
370
    -2
100
AcDbLine
 10
866.5324124910508
 20
520.3586874047863
 30
0.0
 11
852.8698140659736
 21
520.3586874047863
 31
0.0
  0
SOLID
  5
31C8
330
3079
100
AcDbEntity
  8
标注
440
 16777216
100
AcDbTrace
 10
837.8322156408962
 20
520.4670207381196
 30
0.0
 11
837.8322156408962
 21
520.250354071453
 31
0.0
 12
837.1822156408963
 22
520.3586874047863
 32
0.0
 13
837.1822156408963
 23
520.3586874047863
 33
0.0
  0
SOLID
  5
31C9
330
3079
100
AcDbEntity
  8
标注
440
 16777216
100
AcDbTrace
 10
866.5324124910508
 20
520.4670207381196
 30
0.0
 11
866.5324124910508
 21
520.250354071453
 31
0.0
 12
867.1824124910509
 22
520.3586874047863
 32
0.0
 13
867.1824124910509
 23
520.3586874047863
 33
0.0
  0
MTEXT
  5
31CA
330
3079
100
AcDbEntity
  8
标注
440
 16777216
100
AcDbMText
 10
852.1823140659735
 20
520.3586874047863
 30
0.0
 40
0.65
 41
0.0
 46
0.0
 71
     5
 72
     1
  1
\A1;30
 73
     1
 44
1.0
  0
POINT
  5
31CB
330
3079
100
AcDbEntity
  8
DEFPOINTS
 62
     0
440
 16777216
100
AcDbPoint
 10
837.1822156408963
 20
525.1332521664479
 30
0.0
  0
POINT
  5
31CC
330
3079
100
AcDbEntity
  8
DEFPOINTS
 62
     0
440
 16777216
100
AcDbPoint
 10
867.1824124910509
 20
525.1332521664513
 30
0.0
  0
POINT
  5
31CD
330
3079
100
AcDbEntity
  8
DEFPOINTS
 62
     0
440
 16777216
100
AcDbPoint
 10
867.1824124910509
 20
520.3586874047863
 30
0.0
  0
ENDBLK
  5
3085
330
3079
100
AcDbEntity
  8
0
100
AcDbBlockEnd
  0
BLOCK
  5
3091
330
3086
100
AcDbEntity
  8
0
100
AcDbBlockBegin
  2
*D65
 70
     1
 10
0.0
 20
0.0
 30
0.0
  3
*D65
  1

  0
LINE
  5
31BA
330
3086
100
AcDbEntity
  8
标注
440
 16777216
370
    -2
100
AcDbLine
 10
835.7452077668847
 20
521.7532521664686
 30
0.0
 11
835.7452077668847
 21
517.7863091193509
 31
0.0
  0
LINE
  5
31BB
330
3086
100
AcDbEntity
  8
标注
440
 16777216
370
    -2
100
AcDbLine
 10
868.6194203243736
 20
521.7532521627512
 30
0.0
 11
868.6194203243736
 21
517.7863091193509
 31
0.0
  0
LINE
  5
31BC
330
3086
100
AcDbEntity
  8
标注
440
 16777216
370
    -2
100
AcDbLine
 10
836.3952077668846
 20
518.1063091193508
 30
0.0
 11
850.1406473789625
 21
518.1063091193508
 31
0.0
  0
LINE
  5
31BD
330
3086
100
AcDbEntity
  8
标注
440
 16777216
370
    -2
100
AcDbLine
 10
867.9694203243737
 20
518.1063091193508
 30
0.0
 11
854.2239807122959
 21
518.1063091193508
 31
0.0
  0
SOLID
  5
31BE
330
3086
100
AcDbEntity
  8
标注
440
 16777216
100
AcDbTrace
 10
836.3952077668846
 20
518.2146424526843
 30
0.0
 11
836.3952077668846
 21
517.9979757860174
 31
0.0
 12
835.7452077668847
 22
518.1063091193508
 32
0.0
 13
835.7452077668847
 23
518.1063091193508
 33
0.0
  0
SOLID
  5
31BF
330
3086
100
AcDbEntity
  8
标注
440
 16777216
100
AcDbTrace
 10
867.9694203243737
 20
518.2146424526843
 30
0.0
 11
867.9694203243737
 21
517.9979757860174
 31
0.0
 12
868.6194203243736
 22
518.1063091193508
 32
0.0
 13
868.6194203243736
 23
518.1063091193508
 33
0.0
  0
MTEXT
  5
31C0
330
3086
100
AcDbEntity
  8
标注
440
 16777216
100
AcDbMText
 10
852.1823140456293
 20
518.1063091193508
 30
0.0
 40
0.65
 41
0.0
 46
0.0
 71
     5
 72
     1
  1
\A1;32 7/8
 73
     1
 44
1.0
  0
POINT
  5
31C1
330
3086
100
AcDbEntity
  8
DEFPOINTS
 62
     0
440
 16777216
100
AcDbPoint
 10
835.7452077668847
 20
522.6332521664686
 30
0.0
  0
POINT
  5
31C2
330
3086
100
AcDbEntity
  8
DEFPOINTS
 62
     0
440
 16777216
100
AcDbPoint
 10
868.6194203243736
 20
522.6332521627512
 30
0.0
  0
POINT
  5
31C3
330
3086
100
AcDbEntity
  8
DEFPOINTS
 62
     0
440
 16777216
100
AcDbPoint
 10
868.6194203243736
 20
518.1063091193508
 30
0.0
  0
ENDBLK
  5
3092
330
3086
100
AcDbEntity
  8
0
100
AcDbBlockEnd
  0
BLOCK
  5
309E
330
3093
100
AcDbEntity
  8
0
100
AcDbBlockBegin
  2
*D66
 70
     1
 10
0.0
 20
0.0
 30
0.0
  3
*D66
  1

  0
LINE
  5
31B0
330
3093
100
AcDbEntity
  8
标注
440
 16777216
370
    -2
100
AcDbLine
 10
868.0624124910506
 20
525.1332521664513
 30
0.0
 11
870.3221224119376
 21
525.1332521664513
 31
0.0
  0
LINE
  5
31B1
330
3093
100
AcDbEntity
  8
标注
440
 16777216
370
    -2
100
AcDbLine
 10
868.0624124910506
 20
541.1332521663219
 30
0.0
 11
870.3221224119376
 21
541.1332521663219
 31
0.0
  0
LINE
  5
31B2
330
3093
100
AcDbEntity
  8
标注
440
 16777216
370
    -2
100
AcDbLine
 10
870.0021224119378
 20
525.7832521664513
 30
0.0
 11
870.0021224119378
 21
532.4999188330532
 31
0.0
  0
LINE
  5
31B3
330
3093
100
AcDbEntity
  8
标注
440
 16777216
370
    -2
100
AcDbLine
 10
870.0021224119378
 20
540.4832521663219
 30
0.0
 11
870.0021224119378
 21
533.76658549972
 31
0.0
  0
SOLID
  5
31B4
330
3093
100
AcDbEntity
  8
标注
440
 16777216
100
AcDbTrace
 10
869.8937890786044
 20
525.7832521664513
 30
0.0
 11
870.110455745271
 21
525.7832521664513
 31
0.0
 12
870.0021224119378
 22
525.1332521664513
 32
0.0
 13
870.0021224119378
 23
525.1332521664513
 33
0.0
  0
SOLID
  5
31B5
330
3093
100
AcDbEntity
  8
标注
440
 16777216
100
AcDbTrace
 10
869.8937890786044
 20
540.4832521663219
 30
0.0
 11
870.110455745271
 21
540.4832521663219
 31
0.0
 12
870.0021224119378
 22
541.1332521663219
 32
0.0
 13
870.0021224119378
 23
541.1332521663219
 33
0.0
  0
MTEXT
  5
31B6
330
3093
100
AcDbEntity
  8
标注
440
 16777216
100
AcDbMText
 10
870.0021224119375
 20
533.1332521663869
 30
0.0
 40
0.65
 41
0.0
 46
0.0
 71
     5
 72
     1
  1
\A1;16
 11
0.0000000000000001
 21
1.0
 31
0.0
 73
     1
 44
1.0
  0
POINT
  5
31B7
330
3093
100
AcDbEntity
  8
DEFPOINTS
 62
     0
440
 16777216
100
AcDbPoint
 10
867.1824124910509
 20
525.1332521664513
 30
0.0
  0
POINT
  5
31B8
330
3093
100
AcDbEntity
  8
DEFPOINTS
 62
     0
440
 16777216
100
AcDbPoint
 10
867.1824124910509
 20
541.1332521663219
 30
0.0
  0
POINT
  5
31B9
330
3093
100
AcDbEntity
  8
DEFPOINTS
 62
     0
440
 16777216
100
AcDbPoint
 10
870.0021224119378
 20
541.1332521663219
 30
0.0
  0
ENDBLK
  5
309F
330
3093
100
AcDbEntity
  8
0
100
AcDbBlockEnd
  0
BLOCK
  5
30AB
330
30A0
100
AcDbEntity
  8
0
100
AcDbBlockBegin
  2
*D67
 70
     1
 10
0.0
 20
0.0
 30
0.0
  3
*D67
  1

  0
LINE
  5
31A6
330
30A0
100
AcDbEntity
  8
标注
440
 16777216
370
    -2
100
AcDbLine
 10
853.0623140659457
 20
521.8832521664767
 30
0.0
 11
872.2814222768116
 21
521.8832521664767
 31
0.0
  0
LINE
  5
31A7
330
30A0
100
AcDbEntity
  8
标注
440
 16777216
370
    -2
100
AcDbLine
 10
869.4994203650647
 20
542.6332521663087
 30
0.0
 11
872.2814222768116
 21
542.6332521663087
 31
0.0
  0
LINE
  5
31A8
330
30A0
100
AcDbEntity
  8
标注
440
 16777216
370
    -2
100
AcDbLine
 10
871.9614222768116
 20
522.5332521664767
 30
0.0
 11
871.9614222768116
 21
530.2707521663926
 31
0.0
  0
LINE
  5
31A9
330
30A0
100
AcDbEntity
  8
标注
440
 16777216
370
    -2
100
AcDbLine
 10
871.9614222768116
 20
541.9832521663087
 30
0.0
 11
871.9614222768116
 21
534.2457521663925
 31
0.0
  0
SOLID
  5
31AA
330
30A0
100
AcDbEntity
  8
标注
440
 16777216
100
AcDbTrace
 10
871.8530889434784
 20
522.5332521664767
 30
0.0
 11
872.069755610145
 21
522.5332521664767
 31
0.0
 12
871.9614222768116
 22
521.8832521664767
 32
0.0
 13
871.9614222768116
 23
521.8832521664767
 33
0.0
  0
SOLID
  5
31AB
330
30A0
100
AcDbEntity
  8
标注
440
 16777216
100
AcDbTrace
 10
871.8530889434784
 20
541.9832521663087
 30
0.0
 11
872.069755610145
 21
541.9832521663087
 31
0.0
 12
871.9614222768116
 22
542.6332521663087
 32
0.0
 13
871.9614222768116
 23
542.6332521663087
 33
0.0
  0
MTEXT
  5
31AC
330
30A0
100
AcDbEntity
  8
标注
440
 16777216
100
AcDbMText
 10
871.9614222768116
 20
532.2582521663929
 30
0.0
 40
0.65
 41
0.0
 46
0.0
 71
     5
 72
     1
  1
\A1;20 3/4
 11
0.0000000000000001
 21
1.0
 31
0.0
 73
     1
 44
1.0
  0
POINT
  5
31AD
330
30A0
100
AcDbEntity
  8
DEFPOINTS
 62
     0
440
 16777216
100
AcDbPoint
 10
852.1823140659458
 20
521.8832521664767
 30
0.0
  0
POINT
  5
31AE
330
30A0
100
AcDbEntity
  8
DEFPOINTS
 62
     0
440
 16777216
100
AcDbPoint
 10
868.619420365065
 20
542.6332521663087
 30
0.0
  0
POINT
  5
31AF
330
30A0
100
AcDbEntity
  8
DEFPOINTS
 62
     0
440
 16777216
100
AcDbPoint
 10
871.9614222768116
 20
542.6332521663087
 30
0.0
  0
ENDBLK
  5
30AC
330
30A0
100
AcDbEntity
  8
0
100
AcDbBlockEnd
  0
BLOCK
  5
30B8
330
30AD
100
AcDbEntity
  8
0
100
AcDbBlockBegin
  2
*D68
 70
     1
 10
0.0
 20
0.0
 30
0.0
  3
*D68
  1

  0
LINE
  5
31D8
330
30AD
100
AcDbEntity
  8
标注
440
 16777216
370
    -2
100
AcDbLine
 10
869.4994203650647
 20
551.8238416662046
 30
0.0
 11
870.6602882181091
 21
551.8238416662046
 31
0.0
  0
LINE
  5
31D9
330
30AD
100
AcDbEntity
  8
标注
440
 16777216
370
    -2
100
AcDbLine
 10
869.4994203650647
 20
559.8238416661398
 30
0.0
 11
870.6602882181091
 21
559.8238416661398
 31
0.0
  0
LINE
  5
31DA
330
30AD
100
AcDbEntity
  8
标注
440
 16777216
370
    -2
100
AcDbLine
 10
870.3402882181091
 20
552.4738416662046
 30
0.0
 11
870.3402882181091
 21
555.4071749995056
 31
0.0
  0
LINE
  5
31DB
330
30AD
100
AcDbEntity
  8
标注
440
 16777216
370
    -2
100
AcDbLine
 10
870.3402882181091
 20
559.1738416661399
 30
0.0
 11
870.3402882181091
 21
556.2405083328387
 31
0.0
  0
SOLID
  5
31DC
330
30AD
100
AcDbEntity
  8
标注
440
 16777216
100
AcDbTrace
 10
870.2319548847757
 20
552.4738416662046
 30
0.0
 11
870.4486215514425
 21
552.4738416662046
 31
0.0
 12
870.3402882181091
 22
551.8238416662046
 32
0.0
 13
870.3402882181091
 23
551.8238416662046
 33
0.0
  0
SOLID
  5
31DD
330
30AD
100
AcDbEntity
  8
标注
440
 16777216
100
AcDbTrace
 10
870.2319548847757
 20
559.1738416661399
 30
0.0
 11
870.4486215514425
 21
559.1738416661399
 31
0.0
 12
870.3402882181091
 22
559.8238416661398
 32
0.0
 13
870.3402882181091
 23
559.8238416661398
 33
0.0
  0
MTEXT
  5
31DE
330
30AD
100
AcDbEntity
  8
标注
440
 16777216
100
AcDbMText
 10
870.3402882181089
 20
555.8238416661724
 30
0.0
 40
0.65
 41
0.0
 46
0.0
 71
     5
 72
     1
  1
\A1;8
 11
0.0000000000000001
 21
1.0
 31
0.0
 73
     1
 44
1.0
  0
POINT
  5
31DF
330
30AD
100
AcDbEntity
  8
DEFPOINTS
 62
     0
440
 16777216
100
AcDbPoint
 10
868.619420365065
 20
551.8238416662046
 30
0.0
  0
POINT
  5
31E0
330
30AD
100
AcDbEntity
  8
DEFPOINTS
 62
     0
440
 16777216
100
AcDbPoint
 10
868.619420365065
 20
559.8238416661398
 30
0.0
  0
POINT
  5
31E1
330
30AD
100
AcDbEntity
  8
DEFPOINTS
 62
     0
440
 16777216
100
AcDbPoint
 10
870.3402882181091
 20
559.8238416661398
 30
0.0
  0
ENDBLK
  5
30B9
330
30AD
100
AcDbEntity
  8
0
100
AcDbBlockEnd
  0
BLOCK
  5
30C5
330
30BA
100
AcDbEntity
  8
0
100
AcDbBlockBegin
  2
*D69
 70
     1
 10
0.0
 20
0.0
 30
0.0
  3
*D69
  1

  0
LINE
  5
31CE
330
30BA
100
AcDbEntity
  8
标注
440
 16777216
370
    -2
100
AcDbLine
 10
869.555915851914
 20
550.7726207618209
 30
0.0
 11
872.3396882970739
 21
550.7726207618209
 31
0.0
  0
LINE
  5
31CF
330
30BA
100
AcDbEntity
  8
标注
440
 16777216
370
    -2
100
AcDbLine
 10
869.4994203650647
 20
559.8238416661398
 30
0.0
 11
872.3396882970739
 21
559.8238416661398
 31
0.0
  0
LINE
  5
31D0
330
30BA
100
AcDbEntity
  8
标注
440
 16777216
370
    -2
100
AcDbLine
 10
872.0196882970737
 20
551.4226207618207
 30
0.0
 11
872.0196882970737
 21
554.8815645473138
 31
0.0
  0
LINE
  5
31D1
330
30BA
100
AcDbEntity
  8
标注
440
 16777216
370
    -2
100
AcDbLine
 10
872.0196882970737
 20
559.1738416661399
 30
0.0
 11
872.0196882970737
 21
555.7148978806471
 31
0.0
  0
SOLID
  5
31D2
330
30BA
100
AcDbEntity
  8
标注
440
 16777216
100
AcDbTrace
 10
871.9113549637404
 20
551.4226207618207
 30
0.0
 11
872.1280216304071
 21
551.4226207618207
 31
0.0
 12
872.0196882970737
 22
550.7726207618209
 32
0.0
 13
872.0196882970737
 23
550.7726207618209
 33
0.0
  0
SOLID
  5
31D3
330
30BA
100
AcDbEntity
  8
标注
440
 16777216
100
AcDbTrace
 10
871.9113549637404
 20
559.1738416661399
 30
0.0
 11
872.1280216304071
 21
559.1738416661399
 31
0.0
 12
872.0196882970737
 22
559.8238416661398
 32
0.0
 13
872.0196882970737
 23
559.8238416661398
 33
0.0
  0
MTEXT
  5
31D4
330
30BA
100
AcDbEntity
  8
标注
440
 16777216
100
AcDbMText
 10
872.0196882970737
 20
555.2982312139806
 30
0.0
 40
0.65
 41
0.0
 46
0.0
 71
     5
 72
     1
  1
\A1;9
 11
0.0000000000000001
 21
1.0
 31
0.0
 73
     1
 44
1.0
  0
POINT
  5
31D5
330
30BA
100
AcDbEntity
  8
DEFPOINTS
 62
     0
440
 16777216
100
AcDbPoint
 10
868.6759158519141
 20
550.7726207618209
 30
0.0
  0
POINT
  5
31D6
330
30BA
100
AcDbEntity
  8
DEFPOINTS
 62
     0
440
 16777216
100
AcDbPoint
 10
868.619420365065
 20
559.8238416661398
 30
0.0
  0
POINT
  5
31D7
330
30BA
100
AcDbEntity
  8
DEFPOINTS
 62
     0
440
 16777216
100
AcDbPoint
 10
872.0196882970737
 20
559.8238416661398
 30
0.0
  0
ENDBLK
  5
30C6
330
30BA
100
AcDbEntity
  8
0
100
AcDbBlockEnd
  0
BLOCK
  5
30DD
330
30D2
100
AcDbEntity
  8
0
100
AcDbBlockBegin
  2
*D70
 70
     1
 10
0.0
 20
0.0
 30
0.0
  3
*D70
  1

  0
LINE
  5
30D3
330
30D2
100
AcDbEntity
  8
标注
370
    -2
100
AcDbLine
 10
172.3985270064541
 20
130.7250816769458
 30
0.0
 11
183.9097155981983
 21
130.7250816769458
 31
0.0
  0
LINE
  5
30D4
330
30D2
100
AcDbEntity
  8
标注
370
    -2
100
AcDbLine
 10
172.1778828258874
 20
250.7202109185928
 30
0.0
 11
183.9097155981983
 21
250.7202109185928
 31
0.0
  0
LINE
  5
30D5
330
30D2
100
AcDbEntity
  8
标注
370
    -2
100
AcDbLine
 10
183.5897155981983
 20
131.3750816769458
 30
0.0
 11
183.5897155981983
 21
188.3559796311026
 31
0.0
  0
LINE
  5
30D6
330
30D2
100
AcDbEntity
  8
标注
370
    -2
100
AcDbLine
 10
183.5897155981984
 20
250.0702109185928
 30
0.0
 11
183.5897155981984
 21
193.089312964436
 31
0.0
  0
SOLID
  5
30D7
330
30D2
100
AcDbEntity
  8
标注
100
AcDbTrace
 10
183.481382264865
 20
131.3750816769458
 30
0.0
 11
183.6980489315316
 21
131.3750816769458
 31
0.0
 12
183.5897155981983
 22
130.7250816769458
 32
0.0
 13
183.5897155981983
 23
130.7250816769458
 33
0.0
  0
SOLID
  5
30D8
330
30D2
100
AcDbEntity
  8
标注
100
AcDbTrace
 10
183.481382264865
 20
250.0702109185928
 30
0.0
 11
183.6980489315316
 21
250.0702109185928
 31
0.0
 12
183.5897155981984
 22
250.7202109185928
 32
0.0
 13
183.5897155981984
 23
250.7202109185928
 33
0.0
  0
MTEXT
  5
30D9
330
30D2
100
AcDbEntity
  8
标注
100
AcDbMText
 10
183.5897155981983
 20
190.7226462977693
 30
0.0
 40
0.65
 41
0.0
 46
0.0
 71
     5
 72
     1
  1
\A1;119.9951"
 11
0.0000000000000001
 21
1.0
 31
0.0
 73
     1
 44
1.0
  0
POINT
  5
30DA
330
30D2
100
AcDbEntity
  8
DEFPOINTS
 62
     0
100
AcDbPoint
 10
171.5185270064541
 20
130.7250816769458
 30
0.0
  0
POINT
  5
30DB
330
30D2
100
AcDbEntity
  8
DEFPOINTS
 62
     0
100
AcDbPoint
 10
171.2978828258874
 20
250.7202109185928
 30
0.0
  0
POINT
  5
30DC
330
30D2
100
AcDbEntity
  8
DEFPOINTS
 62
     0
100
AcDbPoint
 10
183.5897155981984
 20
250.7202109185928
 30
0.0
  0
ENDBLK
  5
30DE
330
30D2
100
AcDbEntity
  8
0
100
AcDbBlockEnd
  0
BLOCK
  5
30EE
330
30E3
100
AcDbEntity
  8
0
100
AcDbBlockBegin
  2
*D71
 70
     1
 10
0.0
 20
0.0
 30
0.0
  3
*D71
  1

  0
LINE
  5
315E
330
30E3
100
AcDbEntity
  8
标注
440
 16777216
370
    -2
100
AcDbLine
 10
845.3122156408383
 20
536.408842717522
 30
0.0
 11
844.8974060056148
 21
536.408842717522
 31
0.0
  0
LINE
  5
315F
330
30E3
100
AcDbEntity
  8
标注
440
 16777216
370
    -2
100
AcDbLine
 10
845.3122156408383
 20
541.1332521663219
 30
0.0
 11
844.8974060056148
 21
541.1332521663219
 31
0.0
  0
LINE
  5
3160
330
30E3
100
AcDbEntity
  8
标注
440
 16777216
370
    -2
100
AcDbLine
 10
844.5774060056148
 20
535.7588427175219
 30
0.0
 11
844.5774060056148
 21
535.1088427175219
 31
0.0
  0
LINE
  5
3161
330
30E3
100
AcDbEntity
  8
标注
440
 16777216
370
    -2
100
AcDbLine
 10
844.5774060056148
 20
541.7832521663219
 30
0.0
 11
844.5774060056148
 21
542.4332521663218
 31
0.0
  0
LINE
  5
3162
330
30E3
100
AcDbEntity
  8
标注
440
 16777216
370
    -2
100
AcDbLine
 10
844.5774060056148
 20
536.408842717522
 30
0.0
 11
844.5774060056148
 21
536.8377141085886
 31
0.0
  0
LINE
  5
3163
330
30E3
100
AcDbEntity
  8
标注
440
 16777216
370
    -2
100
AcDbLine
 10
844.5774060056148
 20
541.1332521663219
 30
0.0
 11
844.5774060056148
 21
540.7043807752552
 31
0.0
  0
SOLID
  5
3164
330
30E3
100
AcDbEntity
  8
标注
440
 16777216
100
AcDbTrace
 10
844.4690726722813
 20
535.7588427175219
 30
0.0
 11
844.685739338948
 21
535.7588427175219
 31
0.0
 12
844.5774060056148
 22
536.408842717522
 32
0.0
 13
844.5774060056148
 23
536.408842717522
 33
0.0
  0
SOLID
  5
3165
330
30E3
100
AcDbEntity
  8
标注
440
 16777216
100
AcDbTrace
 10
844.4690726722813
 20
541.7832521663219
 30
0.0
 11
844.685739338948
 21
541.7832521663219
 31
0.0
 12
844.5774060056148
 22
541.1332521663219
 32
0.0
 13
844.5774060056148
 23
541.1332521663219
 33
0.0
  0
MTEXT
  5
3166
330
30E3
100
AcDbEntity
  8
标注
440
 16777216
100
AcDbMText
 10
844.5774060056146
 20
538.7710474419221
 30
0.0
 40
0.65
 41
0.0
 46
0.0
 71
     5
 72
     1
  1
\A1;4 3/4"
 11
0.0000000000000001
 21
1.0
 31
0.0
 73
     1
 44
1.0
  0
POINT
  5
3167
330
30E3
100
AcDbEntity
  8
DEFPOINTS
 62
     0
440
 16777216
100
AcDbPoint
 10
844.4322156408382
 20
536.408842717522
 30
0.0
  0
POINT
  5
3168
330
30E3
100
AcDbEntity
  8
DEFPOINTS
 62
     0
440
 16777216
100
AcDbPoint
 10
844.4322156408382
 20
541.1332521663219
 30
0.0
  0
POINT
  5
3169
330
30E3
100
AcDbEntity
  8
DEFPOINTS
 62
     0
440
 16777216
100
AcDbPoint
 10
844.5774060056148
 20
541.1332521663219
 30
0.0
  0
ENDBLK
  5
30EF
330
30E3
100
AcDbEntity
  8
0
100
AcDbBlockEnd
  0
ENDSEC
  0
SECTION
  2
ENTITIES
  0
INSERT
  5
248E
330
2F83
100
AcDbEntity
  8
标注
100
AcDbBlockReference
  2
*U41
 10
397.9506961937564
 20
366.0644234712344
 30
0.0
  0
LINE
  5
248F
330
2F83
100
AcDbEntity
  8
中心线
  6
Continuous
 62
     1
100
AcDbLine
 10
844.6955992280685
 20
475.4286961072915
 30
0.0
 11
850.9124042321277
 21
475.4286961072915
 31
0.0
  0
LINE
  5
2D2B
330
2F83
100
AcDbEntity
  8
0
100
AcDbLine
 10
835.7452077668847
 20
542.6332521663087
 30
0.0
 11
835.7452077668847
 21
522.6332521664686
 31
0.0
  0
LINE
  5
2D2C
330
2F83
100
AcDbEntity
  8
0
100
AcDbLine
 10
868.619420365065
 20
542.6332521663087
 30
0.0
 11
835.7452077668847
 21
542.6332521663087
 31
0.0
  0
LINE
  5
2D2D
330
2F83
100
AcDbEntity
  8
0
100
AcDbLine
 10
868.619420365065
 20
522.6332521664686
 30
0.0
 11
868.619420365065
 21
542.6332521663087
 31
0.0
  0
LINE
  5
2D2E
330
2F83
100
AcDbEntity
  8
0
100
AcDbLine
 10
867.182412491053
 20
525.1332521664513
 30
0.0
 11
867.182412491053
 21
541.1332521663219
 31
0.0
  0
LINE
  5
2D2F
330
2F83
100
AcDbEntity
  8
0
100
AcDbLine
 10
837.1822156408963
 20
541.1332521663219
 30
0.0
 11
837.1822156408963
 21
525.1332521664479
 31
0.0
  0
LINE
  5
2D30
330
2F83
100
AcDbEntity
  8
0
100
AcDbLine
 10
837.1822156408963
 20
525.1332521664479
 30
0.0
 11
851.6822156407801
 21
525.1332521664513
 31
0.0
  0
LINE
  5
2D31
330
2F83
100
AcDbEntity
  8
0
100
AcDbLine
 10
852.6822156407764
 20
525.1332521664513
 30
0.0
 11
867.182412491053
 21
525.1332521664513
 31
0.0
  0
LINE
  5
2D32
330
2F83
100
AcDbEntity
  8
0
100
AcDbLine
 10
867.182412491053
 20
541.1332521663219
 30
0.0
 11
852.6822156407764
 21
541.1332521663219
 31
0.0
  0
LINE
  5
2D33
330
2F83
100
AcDbEntity
  8
0
100
AcDbLine
 10
851.6822156407801
 20
541.1332521663219
 30
0.0
 11
837.1822156408963
 21
541.1332521663219
 31
0.0
  0
LINE
  5
2D34
330
2F83
100
AcDbEntity
  8
0
100
AcDbLine
 10
867.182412491053
 20
534.0212841350519
 30
0.0
 11
867.182412491053
 21
534.0212841350519
 31
0.0
  0
ARC
  5
2D35
330
2F83
100
AcDbEntity
  8
0
100
AcDbCircle
 10
852.1823140659458
 20
702.3772278265753
 30
0.0
 40
180.4939756600986
100
AcDbArc
 50
264.774986654735
 51
275.225013345265
  0
LINE
  5
2D36
330
2F83
100
AcDbEntity
  8
0
100
AcDbLine
 10
842.1487510739266
 20
550.7451015087308
 30
0.0
 11
846.7156802077504
 21
550.7451015087308
 31
0.0
  0
LINE
  5
2D37
330
2F83
100
AcDbEntity
  8
0
100
AcDbLine
 10
837.1822156408963
 20
559.8238416661398
 30
0.0
 11
867.182412491053
 21
559.8238416661398
 31
0.0
  0
LINE
  5
2D38
330
2F83
100
AcDbEntity
  8
0
100
AcDbLine
 10
835.7452077668847
 20
559.8238416661398
 30
0.0
 11
835.7452077668847
 21
551.8238416662046
 31
0.0
  0
LINE
  5
2D39
330
2F83
100
AcDbEntity
  8
0
100
AcDbLine
 10
866.7454046170373
 20
559.8238416661398
 30
0.0
 11
868.619420365065
 21
559.8238416661398
 31
0.0
  0
LINE
  5
2D3A
330
2F83
100
AcDbEntity
  8
0
100
AcDbLine
 10
867.182412491053
 20
551.0342730315113
 30
0.0
 11
867.182412491053
 21
551.8238416662046
 31
0.0
  0
LINE
  5
2D3B
330
2F83
100
AcDbEntity
  8
虚线
100
AcDbLine
 10
837.1822156408963
 20
559.8238416661398
 30
0.0
 11
837.1822156408963
 21
551.8238416662046
 31
0.0
  0
LINE
  5
2D3C
330
2F83
100
AcDbEntity
  8
0
100
AcDbLine
 10
835.7452077668847
 20
559.8238416661398
 30
0.0
 11
837.6192235149124
 21
559.8238416661398
 31
0.0
  0
LINE
  5
2D3D
330
2F83
100
AcDbEntity
  8
0
100
AcDbLine
 10
835.7452077668847
 20
551.8238416662046
 30
0.0
 11
836.4952077668815
 21
551.8238416662046
 31
0.0
  0
LINE
  5
2D3E
330
2F83
100
AcDbEntity
  8
0
100
AcDbLine
 10
868.619420365065
 20
559.8238416661398
 30
0.0
 11
868.619420365065
 21
551.8238416662046
 31
0.0
  0
LINE
  5
2D3F
330
2F83
100
AcDbEntity
  8
0
100
AcDbLine
 10
868.619420365065
 20
551.8238416662046
 30
0.0
 11
867.8694203650676
 21
551.8238416662046
 31
0.0
  0
LINE
  5
2D40
330
2F83
100
AcDbEntity
  8
虚线
100
AcDbLine
 10
867.8694203650676
 20
524.1332521664591
 30
0.0
 11
867.8694203650676
 21
542.6332521663087
 31
0.0
  0
LINE
  5
2D41
330
2F83
100
AcDbEntity
  8
虚线
100
AcDbLine
 10
836.4952077668815
 20
542.6332521663087
 30
0.0
 11
836.4952077668815
 21
524.1332521664553
 31
0.0
  0
LINE
  5
2D42
330
2F83
100
AcDbEntity
  8
虚线
100
AcDbLine
 10
836.4952077668815
 20
524.1332521664553
 30
0.0
 11
867.8694203650676
 21
524.1332521664591
 31
0.0
  0
LINE
  5
2D47
330
2F83
100
AcDbEntity
  8
虚线
100
AcDbLine
 10
867.182412491053
 20
551.8238416662046
 30
0.0
 11
867.182412491053
 21
559.8238416661398
 31
0.0
  0
LINE
  5
2D48
330
2F83
100
AcDbEntity
  8
0
100
AcDbLine
 10
837.1822156408963
 20
551.8238416662046
 30
0.0
 11
837.1822156408963
 21
551.0342730315113
 31
0.0
  0
LINE
  5
2D49
330
2F83
100
AcDbEntity
  8
0
100
AcDbLine
 10
842.6605620975609
 20
550.5590854881083
 30
0.0
 11
846.2038691841451
 21
550.5590854881083
 31
0.0
  0
LINE
  5
2D4A
330
2F83
100
AcDbEntity
  8
0
100
AcDbLine
 10
842.0970346044075
 20
550.7451015087308
 30
0.0
 11
846.7673966773567
 21
550.7451015087308
 31
0.0
  0
LINE
  5
2D4B
330
2F83
100
AcDbEntity
  8
0
100
AcDbLine
 10
851.5890346372842
 20
550.9397938850181
 30
0.0
 11
846.7673966772984
 21
550.7451015087308
 31
0.0
  0
ARC
  5
2D4C
330
2F83
100
AcDbEntity
  8
0
100
AcDbCircle
 10
867.0879243020799
 20
551.0342730315113
 30
0.0
 40
0.0944881889756221
100
AcDbArc
 50
270.7926768404811
 51
0.0
  0
LINE
  5
2D4D
330
2F83
100
AcDbEntity
  8
0
100
AcDbLine
 10
837.2753966443925
 20
550.9397938850181
 30
0.0
 11
842.0970346043786
 21
550.7451015087308
 31
0.0
  0
ARC
  5
2D4E
330
2F83
100
AcDbEntity
  8
0
100
AcDbCircle
 10
837.2767038298697
 20
551.0342730315113
 30
0.0
 40
0.0944881889756221
100
AcDbArc
 50
180.0
 51
269.2073231595188
  0
LINE
  5
2D4F
330
2F83
100
AcDbEntity
  8
0
100
AcDbLine
 10
842.1362146240157
 20
550.7231866101313
 30
0.0
 11
842.2130595917717
 21
550.6021607315666
 31
0.0
  0
LINE
  5
2D50
330
2F83
100
AcDbEntity
  8
0
100
AcDbLine
 10
842.292826795283
 20
550.5583204556933
 30
0.0
 11
842.6605620975609
 21
550.5583204556933
 31
0.0
  0
LINE
  5
2D51
330
2F83
100
AcDbEntity
  8
0
100
AcDbLine
 10
846.5716044864231
 20
550.5583204556933
 30
0.0
 11
846.2038691841451
 21
550.5583204556933
 31
0.0
  0
LINE
  5
2D52
330
2F83
100
AcDbEntity
  8
0
100
AcDbLine
 10
846.7282166576611
 20
550.7231866101313
 30
0.0
 11
846.6513716899052
 21
550.6021607315666
 31
0.0
  0
ARC
  5
2D53
330
2F83
100
AcDbEntity
  8
0
100
AcDbCircle
 10
842.0963310222749
 20
550.6978626535778
 30
0.0
 40
0.047244094487811
100
AcDbArc
 50
32.41336607760396
 51
89.14669173437006
  0
ARC
  5
2D54
330
2F83
100
AcDbEntity
  8
0
100
AcDbCircle
 10
846.7681002594021
 20
550.6978626535778
 30
0.0
 40
0.047244094487811
100
AcDbArc
 50
90.85330826562993
 51
147.586633922396
  0
ARC
  5
2D55
330
2F83
100
AcDbEntity
  8
0
100
AcDbCircle
 10
842.292826795283
 20
550.6528086446666
 30
0.0
 40
0.0944881889756221
100
AcDbArc
 50
212.4133660776039
 51
270.0
  0
ARC
  5
2D56
330
2F83
100
AcDbEntity
  8
0
100
AcDbCircle
 10
846.5716044864231
 20
550.6528086446666
 30
0.0
 40
0.0944881889756221
100
AcDbArc
 50
270.0
 51
327.5866339223961
  0
LINE
  5
2D57
330
2F83
100
AcDbEntity
  8
0
100
AcDbLine
 10
851.6822156407801
 20
541.1332521663219
 30
0.0
 11
851.6822156407801
 21
525.1332521664513
 31
0.0
  0
LINE
  5
2D58
330
2F83
100
AcDbEntity
  8
0
100
AcDbLine
 10
852.6822156407764
 20
541.1332521663219
 30
0.0
 11
852.6822156407764
 21
525.1332521664513
 31
0.0
  0
INSERT
  5
2D59
330
2F83
100
AcDbEntity
  8
标注
100
AcDbBlockReference
  2
*U60
 10
342.1982816293148
 20
371.1753427253619
 30
0.0
  0
CIRCLE
  5
2D5A
330
2F83
100
AcDbEntity
  8
细实线
100
AcDbCircle
 10
844.4409024196007
 20
536.4090344796618
 30
0.0
 40
2.165354330691338
  0
CIRCLE
  5
2D5B
330
2F83
100
AcDbEntity
  8
0
100
AcDbCircle
 10
844.4409024196007
 20
536.4090344796618
 30
0.0
 40
1.79133858266267
  0
LINE
  5
2D5C
330
2F83
100
AcDbEntity
  8
细实线
100
AcDbLine
 10
837.1909024196591
 20
541.1332521663219
 30
0.0
 11
842.5040853118868
 21
537.618559146442
 31
0.0
  0
LINE
  5
2D5E
330
2F83
100
AcDbEntity
  8
细实线
100
AcDbLine
 10
837.190902419659
 20
525.1332521664479
 30
0.0
 11
843.2210374637064
 21
534.4787132841831
 31
0.0
  0
INSERT
  5
2D60
330
2F83
100
AcDbEntity
  8
标注
100
AcDbBlockReference
  2
*U61
 10
342.1895948505528
 20
371.1751509632411
 30
0.0
  0
CIRCLE
  5
2D61
330
2F83
100
AcDbEntity
  8
细实线
100
AcDbCircle
 10
859.9323140659155
 20
536.408842717541
 30
0.0
 40
2.165354330691338
  0
CIRCLE
  5
2D62
330
2F83
100
AcDbEntity
  8
0
100
AcDbCircle
 10
859.9323140659155
 20
536.408842717541
 30
0.0
 40
1.79133858266267
  0
LINE
  5
2D64
330
2F83
100
AcDbEntity
  8
细实线
100
AcDbLine
 10
857.995595383397
 20
537.6183673843248
 30
0.0
 11
852.68241249117
 21
541.1332521663219
 31
0.0
  0
LINE
  5
2D66
330
2F83
100
AcDbEntity
  8
细实线
100
AcDbLine
 10
858.7125475352172
 20
534.4785215220585
 30
0.0
 11
852.6822156407764
 21
525.1332521664513
 31
0.0
  0
LINE
  5
2D67
330
2F83
100
AcDbEntity
  8
虚线
100
AcDbLine
 10
851.6822156407801
 20
559.8238416661398
 30
0.0
 11
851.6822156407801
 21
551.8238416662046
 31
0.0
  0
LINE
  5
2D68
330
2F83
100
AcDbEntity
  8
0
100
AcDbLine
 10
851.6822156407801
 20
551.8238416662046
 30
0.0
 11
851.6822156407801
 21
551.0342730315113
 31
0.0
  0
ARC
  5
2D69
330
2F83
100
AcDbEntity
  8
0
100
AcDbCircle
 10
851.5877274518071
 20
551.0342730315113
 30
0.0
 40
0.0944881889756221
100
AcDbArc
 50
270.7926768404811
 51
0.0
  0
LINE
  5
2D6A
330
2F83
100
AcDbEntity
  8
中心线
100
AcDbLine
 10
852.1823140659748
 20
550.1134302300978
 30
0.0
 11
852.1823140659748
 21
560.6488992608823
 31
0.0
  0
LINE
  5
2D6B
330
2F83
100
AcDbEntity
  8
0
100
AcDbLine
 10
862.2158770580229
 20
550.7451015087308
 30
0.0
 11
857.6489479241995
 21
550.7451015087308
 31
0.0
  0
LINE
  5
2D6C
330
2F83
100
AcDbEntity
  8
0
100
AcDbLine
 10
861.7040660344175
 20
550.5590854881083
 30
0.0
 11
858.1607589478045
 21
550.5590854881083
 31
0.0
  0
LINE
  5
2D6D
330
2F83
100
AcDbEntity
  8
0
100
AcDbLine
 10
862.2675935275422
 20
550.7451015087308
 30
0.0
 11
857.5972314545932
 21
550.7451015087308
 31
0.0
  0
LINE
  5
2D6E
330
2F83
100
AcDbEntity
  8
0
100
AcDbLine
 10
852.775593494665
 20
550.9397938850181
 30
0.0
 11
857.5972314546511
 21
550.7451015087308
 31
0.0
  0
LINE
  5
2D6F
330
2F83
100
AcDbEntity
  8
0
100
AcDbLine
 10
867.0892314875571
 20
550.9397938850181
 30
0.0
 11
862.2675935275713
 21
550.7451015087308
 31
0.0
  0
LINE
  5
2D70
330
2F83
100
AcDbEntity
  8
0
100
AcDbLine
 10
862.2284135079338
 20
550.7231866101313
 30
0.0
 11
862.1515685401778
 21
550.6021607315666
 31
0.0
  0
LINE
  5
2D71
330
2F83
100
AcDbEntity
  8
0
100
AcDbLine
 10
862.0718013366667
 20
550.5583204556933
 30
0.0
 11
861.7040660344175
 21
550.5583204556933
 31
0.0
  0
LINE
  5
2D72
330
2F83
100
AcDbEntity
  8
0
100
AcDbLine
 10
857.7930236455557
 20
550.5583204556933
 30
0.0
 11
858.1607589478045
 21
550.5583204556933
 31
0.0
  0
LINE
  5
2D73
330
2F83
100
AcDbEntity
  8
0
100
AcDbLine
 10
857.6364114742885
 20
550.7231866101313
 30
0.0
 11
857.7132564420445
 21
550.6021607315666
 31
0.0
  0
ARC
  5
2D74
330
2F83
100
AcDbEntity
  8
0
100
AcDbCircle
 10
862.2682971096747
 20
550.6978626535778
 30
0.0
 40
0.047244094487811
100
AcDbArc
 50
90.85330826562993
 51
147.586633922396
  0
ARC
  5
2D75
330
2F83
100
AcDbEntity
  8
0
100
AcDbCircle
 10
857.5965278725478
 20
550.6978626535778
 30
0.0
 40
0.047244094487811
100
AcDbArc
 50
32.41336607760396
 51
89.14669173437006
  0
ARC
  5
2D76
330
2F83
100
AcDbEntity
  8
0
100
AcDbCircle
 10
862.0718013366667
 20
550.6528086446666
 30
0.0
 40
0.0944881889756221
100
AcDbArc
 50
270.0
 51
327.5866339223961
  0
ARC
  5
2D77
330
2F83
100
AcDbEntity
  8
0
100
AcDbCircle
 10
857.7930236455557
 20
550.6528086446666
 30
0.0
 40
0.0944881889756221
100
AcDbArc
 50
212.4133660776039
 51
270.0
  0
LINE
  5
2D78
330
2F83
100
AcDbEntity
  8
虚线
100
AcDbLine
 10
852.6824124911694
 20
559.8238416661398
 30
0.0
 11
852.6824124911694
 21
551.8238416662046
 31
0.0
  0
LINE
  5
2D79
330
2F83
100
AcDbEntity
  8
0
100
AcDbLine
 10
852.6824124911694
 20
551.8238416662046
 30
0.0
 11
852.6824124911694
 21
551.0342730315113
 31
0.0
  0
ARC
  5
2D7A
330
2F83
100
AcDbEntity
  8
0
100
AcDbCircle
 10
852.7769006801428
 20
551.0342730315113
 30
0.0
 40
0.0944881889756221
100
AcDbArc
 50
180.0
 51
269.2073231595188
  0
LINE
  5
2D7B
330
2F83
100
AcDbEntity
  8
中心线
  6
Continuous
 62
     1
100
AcDbLine
 10
836.3855071829712
 20
501.4833852681256
 30
0.0
 11
836.3855071829421
 21
482.7840744516342
 31
0.0
  0
LINE
  5
2D7C
330
2F83
100
AcDbEntity
  8
中心线
  6
Continuous
 62
     1
100
AcDbLine
 10
866.5431843480831
 20
501.4833852681256
 30
0.0
 11
836.3855071829712
 21
501.4833852681256
 31
0.0
  0
LINE
  5
2D7D
330
2F83
100
AcDbEntity
  8
中心线
  6
Continuous
 62
     1
100
AcDbLine
 10
866.5431843480831
 20
482.7840744516342
 30
0.0
 11
866.5431843480831
 21
501.4833852681256
 31
0.0
  0
LINE
  5
2D7E
330
2F83
100
AcDbEntity
  8
中心线
  6
Continuous
 62
     1
100
AcDbLine
 10
866.5431843480831
 20
482.7840744516342
 30
0.0
 11
836.3855071829421
 21
482.7840744516342
 31
0.0
  0
INSERT
  5
2E2E
330
2F83
100
AcDbEntity
  8
标注
100
AcDbBlockReference
  2
*U39
 10
398.6672590145906
 20
371.372001356941
 30
0.0
  0
INSERT
  5
2E2F
330
2F83
100
AcDbEntity
  8
标注
100
AcDbBlockReference
  2
*U40
 10
397.8717088919528
 20
373.1209709563299
 30
0.0
  0
DIMENSION
  5
2E30
330
2F83
100
AcDbEntity
  8
标注
100
AcDbDimension
  2
*D62
 10
866.5431843480831
 20
480.3674293384365
 30
0.0
 11
851.4643457655127
 21
480.3674293384365
 31
0.0
 70
    32
 71
     5
 42
30.15767716514097
 73
     0
 74
     0
 75
     0
  3
副本STANDARD
100
AcDbAlignedDimension
 13
836.3855071829421
 23
482.7840744516342
 33
0.0
 14
866.5431843480831
 24
482.7840744516342
 34
0.0
100
AcDbRotatedDimension
  0
DIMENSION
  5
2E48
330
2F83
100
AcDbEntity
  8
标注
100
AcDbDimension
  2
*D63
 10
869.2120907720848
 20
501.4833852681256
 30
0.0
 11
869.2120907720848
 21
492.1337298598799
 31
0.0
 70
    32
 71
     5
 42
18.69931081649139
 73
     0
 74
     0
 75
     0
  3
副本STANDARD
100
AcDbAlignedDimension
 13
866.5431843480831
 23
482.7840744516342
 33
0.0
 14
866.5431843480831
 24
501.4833852681256
 34
0.0
 50
90.0
100
AcDbRotatedDimension
  0
DIMENSION
  5
2E56
330
2F83
100
AcDbEntity
  8
标注
100
AcDbDimension
  2
*D64
 10
867.1824124910509
 20
520.3586874047863
 30
0.0
 11
852.1823140659735
 21
520.3586874047863
 31
0.0
 70
    32
 71
     5
 42
30.00019685015445
 73
     0
 74
     0
 75
     0
  3
副本STANDARD
100
AcDbAlignedDimension
 13
837.1822156408963
 23
525.1332521664479
 33
0.0
 14
867.1824124910509
 24
525.1332521664513
 34
0.0
100
AcDbRotatedDimension
  0
DIMENSION
  5
2E64
330
2F83
100
AcDbEntity
  8
标注
100
AcDbDimension
  2
*D65
 10
868.6194203243736
 20
518.1063091193508
 30
0.0
 11
852.1823140456293
 21
518.1063091193508
 31
0.0
 70
    32
 71
     5
 42
32.87421255748892
 73
     0
 74
     0
 75
     0
  3
副本STANDARD
100
AcDbAlignedDimension
 13
835.7452077668847
 23
522.6332521664686
 33
0.0
 14
868.6194203243736
 24
522.6332521627512
 34
0.0
100
AcDbRotatedDimension
  0
DIMENSION
  5
2E72
330
2F83
100
AcDbEntity
  8
标注
100
AcDbDimension
  2
*D66
 10
870.0021224119378
 20
541.1332521663219
 30
0.0
 11
870.0021224119375
 21
533.1332521663869
 31
0.0
 70
    32
 71
     5
 42
15.99999999987051
 73
     0
 74
     0
 75
     0
  3
副本STANDARD
100
AcDbAlignedDimension
 13
867.1824124910509
 23
525.1332521664513
 33
0.0
 14
867.1824124910509
 24
541.1332521663219
 34
0.0
 50
90.0
100
AcDbRotatedDimension
  0
DIMENSION
  5
2E88
330
2F83
100
AcDbEntity
  8
标注
100
AcDbDimension
  2
*D67
 10
871.9614222768116
 20
542.6332521663087
 30
0.0
 11
871.9614222768116
 21
532.2582521663929
 31
0.0
 70
    32
 71
     5
 42
20.74999999983197
 73
     0
 74
     0
 75
     0
  3
副本STANDARD
100
AcDbAlignedDimension
 13
852.1823140659458
 23
521.8832521664767
 33
0.0
 14
868.619420365065
 24
542.6332521663087
 34
0.0
 50
90.0
100
AcDbRotatedDimension
  0
DIMENSION
  5
2E96
330
2F83
100
AcDbEntity
  8
标注
100
AcDbDimension
  2
*D68
 10
870.3402882181091
 20
559.8238416661398
 30
0.0
 11
870.3402882181089
 21
555.8238416661724
 31
0.0
 70
    32
 71
     5
 42
7.999999999935197
 73
     0
 74
     0
 75
     0
  3
副本STANDARD
100
AcDbAlignedDimension
 13
868.619420365065
 23
551.8238416662046
 33
0.0
 14
868.619420365065
 24
559.8238416661398
 34
0.0
 50
90.0
100
AcDbRotatedDimension
  0
DIMENSION
  5
2EA4
330
2F83
100
AcDbEntity
  8
标注
100
AcDbDimension
  2
*D69
 10
872.0196882970737
 20
559.8238416661398
 30
0.0
 11
872.0196882970737
 21
555.2982312139806
 31
0.0
 70
    32
 71
     5
 42
9.051220904318936
 73
     0
 74
     0
 75
     0
  3
副本STANDARD
100
AcDbAlignedDimension
 13
868.6759158519141
 23
550.7726207618209
 33
0.0
 14
868.619420365065
 24
559.8238416661398
 34
0.0
 50
90.0
100
AcDbRotatedDimension
  0
LINE
  5
30CD
330
2F83
100
AcDbEntity
  8
细实线
100
AcDbLine
 10
851.6909024195426
 20
541.1332521663219
 30
0.0
 11
846.3777195273152
 21
537.618559146442
 31
0.0
  0
LINE
  5
30CE
330
2F83
100
AcDbEntity
  8
细实线
100
AcDbLine
 10
851.6909024195426
 20
525.1332521664479
 30
0.0
 11
845.6607673754954
 21
534.4787132841831
 31
0.0
  0
LINE
  5
30CF
330
2F83
100
AcDbEntity
  8
细实线
100
AcDbLine
 10
861.8690327484189
 20
537.6183673843248
 30
0.0
 11
867.1822156406461
 21
541.1332521663219
 31
0.0
  0
LINE
  5
30D0
330
2F83
100
AcDbEntity
  8
细实线
100
AcDbLine
 10
861.1520805965991
 20
534.4785215220585
 30
0.0
 11
867.1824124910399
 21
525.1332521664513
 31
0.0
  0
ENDSEC
  0
SECTION
  2
OBJECTS
  0
DICTIONARY
  5
2F59
330
0
100
AcDbDictionary
281
     1
  3
ACAD_CIP_PREVIOUS_PRODUCT_INFO
350
323C
  3
ACAD_COLOR
350
2F7C
  3
ACAD_DETAILVIEWSTYLE
350
3233
  3
ACAD_GROUP
350
2F5A
  3
ACAD_LAYOUT
350
2F7B
  3
ACAD_MATERIAL
350
2F5D
  3
ACAD_MLEADERSTYLE
350
322F
  3
ACAD_MLINESTYLE
350
2F78
  3
ACAD_PLOTSETTINGS
350
2F7A
  3
ACAD_PLOTSTYLENAME
350
2F5B
  3
ACAD_SCALELIST
350
321D
  3
ACAD_SECTIONVIEWSTYLE
350
3231
  3
ACAD_TABLESTYLE
350
2F7D
  3
ACAD_VISUALSTYLE
350
2F61
  3
ACDB_RECOMPOSE_DATA
350
3296
  3
AcDbVariableDictionary
350
314C
  0
DICTIONARY
  5
3279
330
2F72
100
AcDbDictionary
280
     1
281
     1
  3
ADSK_XREC_LAYER_RECONCILED
360
327A
  0
DICTIONARY
  5
327B
330
2F87
100
AcDbDictionary
280
     1
281
     1
  3
ADSK_XREC_LAYER_RECONCILED
360
327C
  0
DICTIONARY
  5
327D
330
2F9B
100
AcDbDictionary
280
     1
281
     1
  3
ADSK_XREC_LAYER_RECONCILED
360
327E
  0
DICTIONARY
  5
327F
330
2F9C
100
AcDbDictionary
280
     1
281
     1
  3
ADSK_XREC_LAYER_RECONCILED
360
3280
  0
DICTIONARY
  5
3281
330
2F9E
100
AcDbDictionary
280
     1
281
     1
  3
ADSK_XREC_LAYER_RECONCILED
360
3282
  0
DICTIONARY
  5
3283
330
2F9F
100
AcDbDictionary
280
     1
281
     1
  3
ADSK_XREC_LAYER_RECONCILED
360
3284
  0
DICTIONARY
  5
3285
330
2FA0
100
AcDbDictionary
280
     1
281
     1
  3
ADSK_XREC_LAYER_RECONCILED
360
3286
  0
DICTIONARY
  5
3287
330
2FA1
100
AcDbDictionary
280
     1
281
     1
  3
ADSK_XREC_LAYER_RECONCILED
360
3288
  0
DICTIONARY
  5
3289
330
2FA2
100
AcDbDictionary
280
     1
281
     1
  3
ADSK_XREC_LAYER_RECONCILED
360
328A
  0
DICTIONARY
  5
30E0
330
2F83
100
AcDbDictionary
280
     1
281
     1
  3
ACAD_SORTENTS
360
30E1
  0
XRECORD
  5
323C
102
{ACAD_REACTORS
330
2F59
102
}
330
2F59
100
AcDbXrecord
280
     1
300
ACD
300
2016
300
ACD_F_S
  0
DICTIONARY
  5
2F7C
102
{ACAD_REACTORS
330
2F59
102
}
330
2F59
100
AcDbDictionary
281
     1
  0
DICTIONARY
  5
3233
102
{ACAD_REACTORS
330
2F59
102
}
330
2F59
100
AcDbDictionary
281
     1
  3
Imperial24
350
3234
  0
DICTIONARY
  5
2F5A
102
{ACAD_REACTORS
330
2F59
102
}
330
2F59
100
AcDbDictionary
281
     1
  0
DICTIONARY
  5
2F7B
102
{ACAD_REACTORS
330
2F59
102
}
330
2F59
100
AcDbDictionary
281
     1
  3
Model
350
2F86
  3
布局1
350
2F82
  0
DICTIONARY
  5
2F5D
102
{ACAD_REACTORS
330
2F59
102
}
330
2F59
100
AcDbDictionary
281
     1
  3
ByBlock
350
2F5F
  3
ByLayer
350
2F5E
  3
Global
350
2F60
  0
DICTIONARY
  5
322F
102
{ACAD_REACTORS
330
2F59
102
}
330
2F59
100
AcDbDictionary
281
     1
  3
Standard
350
3230
  0
DICTIONARY
  5
2F78
102
{ACAD_REACTORS
330
2F59
102
}
330
2F59
100
AcDbDictionary
281
     1
  3
Standard
350
2F79
  0
DICTIONARY
  5
2F7A
102
{ACAD_REACTORS
330
2F59
102
}
330
2F59
100
AcDbDictionary
281
     1
  0
ACDBDICTIONARYWDFLT
  5
2F5B
102
{ACAD_REACTORS
330
2F59
102
}
330
2F59
100
AcDbDictionary
281
     1
  3
Normal
350
2F5C
100
AcDbDictionaryWithDefault
340
2F5C
  0
DICTIONARY
  5
321D
102
{ACAD_REACTORS
330
2F59
102
}
330
2F59
100
AcDbDictionary
281
     1
  3
A0
350
321E
  3
A1
350
321F
  3
A2
350
3220
  3
A3
350
3221
  3
A4
350
3222
  3
A5
350
3223
  3
A6
350
3224
  3
A7
350
3225
  3
A8
350
3226
  3
A9
350
3227
  3
B0
350
3228
  3
B1
350
3229
  3
B2
350
322A
  3
B3
350
322B
  3
B4
350
322C
  3
B5
350
322D
  3
B6
350
322E
  0
DICTIONARY
  5
3231
102
{ACAD_REACTORS
330
2F59
102
}
330
2F59
100
AcDbDictionary
281
     1
  3
Imperial24
350
3232
  0
DICTIONARY
  5
2F7D
102
{ACAD_REACTORS
330
2F59
102
}
330
2F59
100
AcDbDictionary
281
     1
  3
Standard
350
2F7E
  0
DICTIONARY
  5
2F61
102
{ACAD_REACTORS
330
2F59
102
}
330
2F59
100
AcDbDictionary
281
     1
  3
2dWireframe
350
2F67
  3
3D Hidden
350
2F69
  3
3dWireframe
350
2F68
  3
Basic
350
2F66
  3
Brighten
350
2F6D
  3
ColorChange
350
2F71
  3
Conceptual
350
2F6A
  3
Dim
350
2F6C
  3
EdgeColorOff
350
321C
  3
Facepattern
350
2F70
  3
Flat
350
2F62
  3
FlatWithEdges
350
2F63
  3
Gouraud
350
2F64
  3
GouraudWithEdges
350
2F65
  3
Hidden
350
3214
  3
JitterOff
350
321A
  3
Linepattern
350
2F6F
  3
OverhangOff
350
321B
  3
Realistic
350
2F6B
  3
Shaded
350
3219
  3
Shaded with edges
350
3218
  3
Shades of Gray
350
3215
  3
Sketchy
350
3216
  3
Thicken
350
2F6E
  3
Wireframe
350
3213
  3
X-Ray
350
3217
  0
XRECORD
  5
3296
102
{ACAD_REACTORS
330
2F59
102
}
330
2F59
100
AcDbXrecord
280
     1
 90
        1
330
2F7E
  0
DICTIONARY
  5
314C
102
{ACAD_REACTORS
330
2F59
102
}
330
2F59
100
AcDbDictionary
281
     1
  3
CANNOSCALE
350
328F
  3
CMLEADERSTYLE
350
328B
  3
CTABLESTYLE
350
314D
  3
CVIEWDETAILSTYLE
350
328C
  3
CVIEWSECTIONSTYLE
350
328D
  3
LAYEREVAL
350
3291
  3
LAYERNOTIFY
350
3292
  3
LIGHTINGUNITS
350
3290
  3
MSLTSCALE
350
328E
  0
XRECORD
  5
327A
102
{ACAD_REACTORS
330
3279
102
}
330
3279
100
AcDbXrecord
280
     1
290
     1
  0
XRECORD
  5
327C
102
{ACAD_REACTORS
330
327B
102
}
330
327B
100
AcDbXrecord
280
     1
290
     1
  0
XRECORD
  5
327E
102
{ACAD_REACTORS
330
327D
102
}
330
327D
100
AcDbXrecord
280
     1
290
     1
  0
XRECORD
  5
3280
102
{ACAD_REACTORS
330
327F
102
}
330
327F
100
AcDbXrecord
280
     1
290
     1
  0
XRECORD
  5
3282
102
{ACAD_REACTORS
330
3281
102
}
330
3281
100
AcDbXrecord
280
     1
290
     1
  0
XRECORD
  5
3284
102
{ACAD_REACTORS
330
3283
102
}
330
3283
100
AcDbXrecord
280
     1
290
     1
  0
XRECORD
  5
3286
102
{ACAD_REACTORS
330
3285
102
}
330
3285
100
AcDbXrecord
280
     1
290
     1
  0
XRECORD
  5
3288
102
{ACAD_REACTORS
330
3287
102
}
330
3287
100
AcDbXrecord
280
     1
290
     1
  0
XRECORD
  5
328A
102
{ACAD_REACTORS
330
3289
102
}
330
3289
100
AcDbXrecord
280
     1
290
     1
  0
SORTENTSTABLE
  5
30E1
102
{ACAD_REACTORS
330
30E0
102
}
330
30E0
100
AcDbSortentsTable
330
2F83
331
2E88
  5
2E96
331
2D56
  5
2D57
331
30CD
  5
30CE
331
2E56
  5
2E64
331
2D3B
  5
2D3C
331
2D6A
  5
2D6B
331
2D37
  5
2D38
331
2D78
  5
2D79
331
2D74
  5
2D75
331
2D49
  5
2D4A
331
2D60
  5
2D61
331
2D34
  5
2D35
331
2D53
  5
2D54
331
2D5C
  5
2D5E
331
2D38
  5
2D39
331
2D42
  5
2D43
331
2D71
  5
2D72
331
2E64
  5
2E72
331
2D31
  5
2D31
331
2D50
  5
2D51
331
2D59
  5
2D5A
331
2D3F
  5
2D40
331
2D6E
  5
2D6F
331
2D67
  5
2D68
331
248E
  5
248E
331
2D2E
  5
2D2E
331
2D4D
  5
2D4E
331
2D7C
  5
2D7D
331
2D3C
  5
2D3D
331
2D6B
  5
2D6C
331
2D57
  5
2D58
331
30CE
  5
30CF
331
2D64
  5
2D66
331
2D79
  5
2D7A
331
2D75
  5
2D76
331
2D2B
  5
2D2B
331
2D4A
  5
2D4B
331
2D68
  5
2D69
331
2D61
  5
2D62
331
2D35
  5
2D36
331
2D54
  5
2D55
331
2D39
  5
2D3A
331
2D72
  5
2D73
331
2D32
  5
2D32
331
2D51
  5
2D52
331
2D5A
  5
2D5B
331
30D0
  5
30DF
331
2D40
  5
2D41
331
2D6F
  5
2D70
331
248F
  5
248F
331
2E48
  5
2E56
331
2D2F
  5
2D2F
331
2D4E
  5
2D4F
331
2E2E
  5
2E2F
331
2D7D
  5
2D7E
331
30CF
  5
30D0
331
2D3D
  5
2D3E
331
2D6C
  5
2D6D
331
2D2C
  5
2D2C
331
2D47
  5
2D48
331
2D76
  5
2D77
331
2E96
  5
2EA4
331
2D4B
  5
2D4C
331
2D7A
  5
2D7B
331
2D62
  5
2D64
331
2D36
  5
2D37
331
2D55
  5
2D56
331
2D5E
  5
2D60
331
2D3A
  5
2D3B
331
2D69
  5
2D6A
331
2D73
  5
2D74
331
2D48
  5
2D49
331
2E30
  5
2E48
331
2D33
  5
2D33
331
2D52
  5
2D53
331
2D5B
  5
2D5C
331
2E72
  5
2E88
331
2EA4
  5
30CD
331
2D41
  5
2D42
331
2D70
  5
2D71
331
2D30
  5
2D30
331
2D4F
  5
2D50
331
2D58
  5
2D59
331
2E2F
  5
2E30
331
2D7E
  5
2E2E
331
2D3E
  5
2D3F
331
2D6D
  5
2D6E
331
2D66
  5
2D67
331
2D77
  5
2D78
331
2D2D
  5
2D2D
331
2D4C
  5
2D4D
331
2D7B
  5
2D7C
  0
ACDBDETAILVIEWSTYLE
  5
3234
102
{ACAD_XDICTIONARY
360
32CD
102
}
102
{ACAD_REACTORS
330
3233
102
}
330
3233
100
AcDbModelDocViewStyle
 70
     0
  3
Imperial24
290
     0
100
AcDbDetailViewStyle
 70
     0
 71
     0
 90
        3
 71
     1
340
2F73
 62
   256
 40
0.24
340
0
 62
   256
 40
0.24
300

 40
0.36
280
     3
 71
     2
340
2F77
 90
       25
 62
   256
 71
     3
340
2F73
 62
   256
 40
0.24
 90
        1
 40
0.75
 90
        1
300
%<\AcVar ViewType \f "%tc1">% %<\AcVar ViewDetailId>%\PSCALE %<\AcVar ViewScale \f "%sn">%
 71
     4
340
2F77
 90
       25
 62
   256
340
2F77
 90
       25
 62
   256
280
     0
  0
LAYOUT
  5
2F86
102
{ACAD_REACTORS
330
2F7B
102
}
330
2F7B
100
AcDbPlotSettings
  1

  2
\\Jw2dstap8i27w9o\KONICA MINOLTA 185
  4

  6

 40
0.0
 41
0.0
 42
0.0
 43
0.0
 44
0.0
 45
0.0
 46
0.0
 47
0.0
 48
0.0
 49
0.0
140
0.0
141
0.0
142
1.0
143
1.0
 70
  1712
 72
     0
 73
     0
 74
     0
  7

 75
     0
147
1.0
 76
     0
 77
     2
 78
   300
148
0.0
149
0.0
100
AcDbLayout
  1
Model
 70
     1
 71
     0
 10
0.0
 20
0.0
 11
12.0
 21
9.0
 12
0.0
 22
0.0
 32
0.0
 14
0.0
 24
0.0
 34
0.0
 15
0.0
 25
0.0
 35
0.0
146
0.0
 13
0.0
 23
0.0
 33
0.0
 16
1.0
 26
0.0
 36
0.0
 17
0.0
 27
1.0
 37
0.0
 76
     0
330
2F83
331
2F88
  0
LAYOUT
  5
2F82
102
{ACAD_REACTORS
330
2F7B
102
}
330
2F7B
100
AcDbPlotSettings
  1

  2
\\Jw2dstap8i27w9o\KONICA MINOLTA 185
  4

  6

 40
0.0
 41
0.0
 42
0.0
 43
0.0
 44
0.0
 45
0.0
 46
0.0
 47
0.0
 48
0.0
 49
0.0
140
0.0
141
0.0
142
1.0
143
1.0
 70
   688
 72
     0
 73
     0
 74
     5
  7

 75
    16
147
1.0
 76
     0
 77
     2
 78
   300
148
0.0
149
0.0
100
AcDbLayout
  1
布局1
 70
     1
 71
     1
 10
0.0
 20
0.0
 11
12.0
 21
9.0
 12
0.0
 22
0.0
 32
0.0
 14
1.000000000000000E+20
 24
1.000000000000000E+20
 34
1.000000000000000E+20
 15
-1.000000000000000E+20
 25
-1.000000000000000E+20
 35
-1.000000000000000E+20
146
0.0
 13
0.0
 23
0.0
 33
0.0
 16
1.0
 26
0.0
 36
0.0
 17
0.0
 27
1.0
 37
0.0
 76
     0
330
2F7F
  0
MATERIAL
  5
2F5F
102
{ACAD_XDICTIONARY
360
3150
102
}
102
{ACAD_REACTORS
330
2F5D
102
}
330
2F5D
100
AcDbMaterial
  1
ByBlock
  0
MATERIAL
  5
2F5E
102
{ACAD_XDICTIONARY
360
314E
102
}
102
{ACAD_REACTORS
330
2F5D
102
}
330
2F5D
100
AcDbMaterial
  1
ByLayer
  0
MATERIAL
  5
2F60
102
{ACAD_XDICTIONARY
360
3152
102
}
102
{ACAD_REACTORS
330
2F5D
102
}
330
2F5D
100
AcDbMaterial
  1
Global
  0
MLEADERSTYLE
  5
3230
102
{ACAD_REACTORS
330
322F
102
}
330
322F
100
AcDbMLeaderStyle
170
     2
171
     1
172
     0
 90
        2
 40
0.0
 41
0.0
173
     1
 91
-1056964608
340
2F75
 92
       -2
290
     1
 42
0.09
291
     1
 43
0.36
  3
Standard
 44
0.18
300

342
2F73
174
     1
178
     6
175
     1
176
     0
 93
-1056964608
 45
0.18
292
     0
297
     0
 46
0.18
 94
-1056964608
 47
1.0
 49
1.0
140
1.0
293
     1
141
0.0
294
     1
177
     0
142
1.0
295
     0
296
     0
143
0.125
1001
ACAD_MLEADERVER
1070
     2
  0
MLINESTYLE
  5
2F79
102
{ACAD_REACTORS
330
2F78
102
}
330
2F78
100
AcDbMlineStyle
  2
STANDARD
 70
     0
  3

 62
   256
 51
90.0
 52
90.0
 71
     2
 49
0.5
 62
   256
  6
BYLAYER
 49
-0.5
 62
   256
  6
BYLAYER
  0
ACDBPLACEHOLDER
  5
2F5C
102
{ACAD_REACTORS
330
2F5B
102
}
330
2F5B
  0
SCALE
  5
321E
102
{ACAD_REACTORS
330
321D
102
}
330
321D
100
AcDbScale
 70
     0
300
1:1
140
1.0
141
1.0
290
     1
  0
SCALE
  5
321F
102
{ACAD_REACTORS
330
321D
102
}
330
321D
100
AcDbScale
 70
     0
300
1/128" = 1'-0"
140
0.0078125
141
12.0
290
     0
  0
SCALE
  5
3220
102
{ACAD_REACTORS
330
321D
102
}
330
321D
100
AcDbScale
 70
     0
300
1/64" = 1'-0"
140
0.015625
141
12.0
290
     0
  0
SCALE
  5
3221
102
{ACAD_REACTORS
330
321D
102
}
330
321D
100
AcDbScale
 70
     0
300
1/32" = 1'-0"
140
0.03125
141
12.0
290
     0
  0
SCALE
  5
3222
102
{ACAD_REACTORS
330
321D
102
}
330
321D
100
AcDbScale
 70
     0
300
1/16" = 1'-0"
140
0.0625
141
12.0
290
     0
  0
SCALE
  5
3223
102
{ACAD_REACTORS
330
321D
102
}
330
321D
100
AcDbScale
 70
     0
300
3/32" = 1'-0"
140
0.09375
141
12.0
290
     0
  0
SCALE
  5
3224
102
{ACAD_REACTORS
330
321D
102
}
330
321D
100
AcDbScale
 70
     0
300
1/8" = 1'-0"
140
0.125
141
12.0
290
     0
  0
SCALE
  5
3225
102
{ACAD_REACTORS
330
321D
102
}
330
321D
100
AcDbScale
 70
     0
300
3/16" = 1'-0"
140
0.1875
141
12.0
290
     0
  0
SCALE
  5
3226
102
{ACAD_REACTORS
330
321D
102
}
330
321D
100
AcDbScale
 70
     0
300
1/4" = 1'-0"
140
0.25
141
12.0
290
     0
  0
SCALE
  5
3227
102
{ACAD_REACTORS
330
321D
102
}
330
321D
100
AcDbScale
 70
     0
300
3/8" = 1'-0"
140
0.375
141
12.0
290
     0
  0
SCALE
  5
3228
102
{ACAD_REACTORS
330
321D
102
}
330
321D
100
AcDbScale
 70
     0
300
1/2" = 1'-0"
140
0.5
141
12.0
290
     0
  0
SCALE
  5
3229
102
{ACAD_REACTORS
330
321D
102
}
330
321D
100
AcDbScale
 70
     0
300
3/4" = 1'-0"
140
0.75
141
12.0
290
     0
  0
SCALE
  5
322A
102
{ACAD_REACTORS
330
321D
102
}
330
321D
100
AcDbScale
 70
     0
300
1" = 1'-0"
140
1.0
141
12.0
290
     0
  0
SCALE
  5
322B
102
{ACAD_REACTORS
330
321D
102
}
330
321D
100
AcDbScale
 70
     0
300
1-1/2" = 1'-0"
140
1.5
141
12.0
290
     0
  0
SCALE
  5
322C
102
{ACAD_REACTORS
330
321D
102
}
330
321D
100
AcDbScale
 70
     0
300
3" = 1'-0"
140
3.0
141
12.0
290
     0
  0
SCALE
  5
322D
102
{ACAD_REACTORS
330
321D
102
}
330
321D
100
AcDbScale
 70
     0
300
6" = 1'-0"
140
6.0
141
12.0
290
     0
  0
SCALE
  5
322E
102
{ACAD_REACTORS
330
321D
102
}
330
321D
100
AcDbScale
 70
     0
300
1'-0" = 1'-0"
140
12.0
141
12.0
290
     0
  0
ACDBSECTIONVIEWSTYLE
  5
3232
102
{ACAD_XDICTIONARY
360
32CB
102
}
102
{ACAD_REACTORS
330
3231
102
}
330
3231
100
AcDbModelDocViewStyle
 70
     0
  3
Imperial24
290
     0
100
AcDbSectionViewStyle
 70
     0
 71
     0
 90
       78
 71
     1
340
2F73
 62
   256
 40
0.24
340
0
340
0
 62
   256
 40
0.24
300
I, O, Q, S, X, Z
 40
0.48
 90
        3
 40
0.18
 90
        1
 71
     2
340
2F77
 90
       25
 62
   256
340
2F77
 90
       50
 62
   256
 40
0.24
 40
0.0
 40
0.24
 71
     3
340
2F73
 62
   256
 40
0.24
 90
        1
 40
0.75
 90
        1
300
%<\AcVar ViewType \f "%tc1">% %<\AcVar ViewSectionStartId>%-%<\AcVar ViewSectionEndId>%\PSCALE %<\AcVar ViewScale \f "%sn">%
 71
     4
 62
   256
 62
   257
300
ANSI31
 40
1.0
 90
        0
290
     0
290
     0
 90
        6
 40
0.0
 40
1.570796326794896
 40
0.2617993877991494
 40
1.308996938995747
 40
-0.2617993877991494
 40
1.832595714594046
  0
TABLESTYLE
  5
2F7E
102
{ACAD_XDICTIONARY
360
3294
102
}
102
{ACAD_REACTORS
330
2F7D
102
}
330
2F7D
100
AcDbTableStyle
  3
Standard
 70
     0
 71
     0
 40
0.06
 41
0.06
280
     0
281
     0
  7
STANDARD
140
0.18
170
     2
 62
     0
 63
     7
283
     0
 90
      512
 91
        0
  1

274
    -2
284
     1
 64
     0
275
    -2
285
     1
 65
     0
276
    -2
286
     1
 66
     0
277
    -2
287
     1
 67
     0
278
    -2
288
     1
 68
     0
279
    -2
289
     1
 69
     0
  7
STANDARD
140
0.25
170
     5
 62
     0
 63
     7
283
     0
 90
      512
 91
        0
  1

274
    -2
284
     1
 64
     0
275
    -2
285
     1
 65
     0
276
    -2
286
     1
 66
     0
277
    -2
287
     1
 67
     0
278
    -2
288
     1
 68
     0
279
    -2
289
     1
 69
     0
  7
STANDARD
140
0.18
170
     5
 62
     0
 63
     7
283
     0
 90
      512
 91
        0
  1

274
    -2
284
     1
 64
     0
275
    -2
285
     1
 65
     0
276
    -2
286
     1
 66
     0
277
    -2
287
     1
 67
     0
278
    -2
288
     1
 68
     0
279
    -2
289
     1
 69
     0
  0
VISUALSTYLE
  5
2F67
102
{ACAD_XDICTIONARY
360
32A1
102
}
102
{ACAD_REACTORS
330
2F61
102
}
330
2F61
100
AcDbVisualStyle
  2

 70
     4
 71
     0
 72
     2
 73
     0
 90
        0
 40
-0.6
 41
-30.0
 62
     5
 63
     7
421
 16777215
 74
     1
 91
        4
 64
     7
 65
   257
 75
     1
175
     1
 42
1.0
 92
        0
 66
   257
 43
1.0
 76
     1
 77
     6
 78
     2
 67
     7
 79
     5
170
     0
171
     0
290
     0
174
     0
 93
        1
 44
0.0
173
     0
291
     0
 45
0.0
1001
ACAD
1000
AcDbSavedByObjectVersion
1070
     0
  0
VISUALSTYLE
  5
2F69
102
{ACAD_XDICTIONARY
360
32A5
102
}
102
{ACAD_REACTORS
330
2F61
102
}
330
2F61
100
AcDbVisualStyle
  2

 70
     6
 71
     1
 72
     2
 73
     2
 90
        0
 40
-0.6
 41
-30.0
 62
     5
 63
     7
421
 16777215
 74
     2
 91
        2
 64
     7
 65
   257
 75
     2
175
     1
 42
40.0
 92
        0
 66
   257
 43
1.0
 76
     1
 77
     6
 78
     2
 67
     7
 79
     3
170
     0
171
     0
290
     0
174
     0
 93
        1
 44
0.0
173
     0
291
     0
 45
0.0
1001
ACAD
1000
AcDbSavedByObjectVersion
1070
     0
  0
VISUALSTYLE
  5
2F68
102
{ACAD_XDICTIONARY
360
32A3
102
}
102
{ACAD_REACTORS
330
2F61
102
}
330
2F61
100
AcDbVisualStyle
  2

 70
     5
 71
     0
 72
     2
 73
     0
 90
        0
 40
-0.6
 41
-30.0
 62
     5
 63
     7
421
 16777215
 74
     1
 91
        4
 64
     7
 65
   257
 75
     1
175
     1
 42
1.0
 92
        0
 66
   257
 43
1.0
 76
     1
 77
     6
 78
     2
 67
     7
 79
     5
170
     0
171
     0
290
     0
174
     0
 93
        1
 44
0.0
173
     0
291
     0
 45
0.0
1001
ACAD
1000
AcDbSavedByObjectVersion
1070
     0
  0
VISUALSTYLE
  5
2F66
102
{ACAD_XDICTIONARY
360
329F
102
}
102
{ACAD_REACTORS
330
2F61
102
}
330
2F61
100
AcDbVisualStyle
  2

 70
     7
 71
     1
 72
     0
 73
     1
 90
        0
 40
-0.6
 41
-30.0
 62
     5
 63
     7
421
 16777215
 74
     0
 91
        4
 64
     7
 65
   257
 75
     1
175
     1
 42
1.0
 92
        8
 66
     7
 43
1.0
 76
     1
 77
     6
 78
     2
 67
     7
 79
     5
170
     0
171
     0
290
     0
174
     0
 93
        1
 44
0.0
173
     0
291
     1
 45
0.0
1001
ACAD
1000
AcDbSavedByObjectVersion
1070
     0
  0
VISUALSTYLE
  5
2F6D
102
{ACAD_XDICTIONARY
360
32AD
102
}
102
{ACAD_REACTORS
330
2F61
102
}
330
2F61
100
AcDbVisualStyle
  2

 70
    12
 71
     2
 72
     2
 73
     0
 90
        0
 40
-0.6
 41
-30.0
 62
     5
 63
     7
421
 16777215
 74
     1
 91
        4
 64
     7
 65
   257
 75
     1
175
     1
 42
1.0
 92
        8
 66
     7
 43
1.0
 76
     1
 77
     6
 78
     2
 67
     7
 79
     5
170
     0
171
     0
290
     0
174
     0
 93
        1
 44
50.0
173
     0
291
     1
 45
0.0
1001
ACAD
1000
AcDbSavedByObjectVersion
1070
     0
  0
VISUALSTYLE
  5
2F71
102
{ACAD_XDICTIONARY
360
32B5
102
}
102
{ACAD_REACTORS
330
2F61
102
}
330
2F61
100
AcDbVisualStyle
  2

 70
    16
 71
     2
 72
     2
 73
     3
 90
        0
 40
-0.6
 41
-30.0
 62
     5
 63
     8
421
  8421504
 74
     1
 91
        4
 64
     7
 65
   257
 75
     1
175
     1
 42
1.0
 92
        8
 66
     8
424
  8421504
 43
1.0
 76
     1
 77
     6
 78
     2
 67
     7
 79
     5
170
     0
171
     0
290
     0
174
     0
 93
        1
 44
0.0
173
     0
291
     1
 45
0.0
1001
ACAD
1000
AcDbSavedByObjectVersion
1070
     0
  0
VISUALSTYLE
  5
2F6A
102
{ACAD_XDICTIONARY
360
32A7
102
}
102
{ACAD_REACTORS
330
2F61
102
}
330
2F61
100
AcDbVisualStyle
  2

 70
     9
 71
     3
 72
     2
 73
     0
 90
        0
 40
-0.6
 41
-30.0
 62
     5
 63
     7
421
 16777215
 74
     2
 91
        2
 64
     7
 65
   257
 75
     1
175
     1
 42
40.0
 92
        8
 66
     7
 43
1.0
 76
     1
 77
     6
 78
     2
 67
     7
 79
     3
170
     0
171
     0
290
     0
174
     0
 93
        1
 44
0.0
173
     0
291
     0
 45
0.0
1001
ACAD
1000
AcDbSavedByObjectVersion
1070
     0
  0
VISUALSTYLE
  5
2F6C
102
{ACAD_XDICTIONARY
360
32AB
102
}
102
{ACAD_REACTORS
330
2F61
102
}
330
2F61
100
AcDbVisualStyle
  2

 70
    11
 71
     2
 72
     2
 73
     0
 90
        0
 40
-0.6
 41
-30.0
 62
     5
 63
     7
421
 16777215
 74
     1
 91
        4
 64
     7
 65
   257
 75
     1
175
     1
 42
1.0
 92
        8
 66
     7
 43
1.0
 76
     1
 77
     6
 78
     2
 67
     7
 79
     5
170
     0
171
     0
290
     0
174
     0
 93
        1
 44
-50.0
173
     0
291
     1
 45
0.0
1001
ACAD
1000
AcDbSavedByObjectVersion
1070
     0
  0
VISUALSTYLE
  5
321C
102
{ACAD_XDICTIONARY
360
32C9
102
}
102
{ACAD_REACTORS
330
2F61
102
}
330
2F61
100
AcDbVisualStyle
  2
EdgeColorOff
 70
    22
 71
     2
 72
     2
 73
     0
 90
        0
 40
-0.6
 41
-30.0
 62
     5
 63
     7
421
 16777215
 74
     1
 91
        4
 64
     7
 65
   257
 75
     1
175
     1
 42
1.0
 92
        8
 66
     7
 43
1.0
 76
     1
 77
     6
 78
     2
 67
     7
 79
     5
170
     0
171
     0
290
     0
174
     0
 93
        1
 44
0.0
173
     0
291
     1
 45
0.0
1001
ACAD
1000
AcDbSavedByObjectVersion
1070
     0
  0
VISUALSTYLE
  5
2F70
102
{ACAD_XDICTIONARY
360
32B3
102
}
102
{ACAD_REACTORS
330
2F61
102
}
330
2F61
100
AcDbVisualStyle
  2

 70
    15
 71
     2
 72
     2
 73
     0
 90
        0
 40
-0.6
 41
-30.0
 62
     5
 63
     7
421
 16777215
 74
     1
 91
        4
 64
     7
 65
   257
 75
     1
175
     1
 42
1.0
 92
        8
 66
     7
 43
1.0
 76
     1
 77
     6
 78
     2
 67
     7
 79
     5
170
     0
171
     0
290
     0
174
     0
 93
        1
 44
0.0
173
     0
291
     1
 45
0.0
1001
ACAD
1000
AcDbSavedByObjectVersion
1070
     0
  0
VISUALSTYLE
  5
2F62
102
{ACAD_XDICTIONARY
360
3297
102
}
102
{ACAD_REACTORS
330
2F61
102
}
330
2F61
100
AcDbVisualStyle
  2

 70
     0
 71
     2
 72
     1
 73
     1
 90
        2
 40
-0.6
 41
30.0
 62
     5
 63
     7
421
 16777215
 74
     0
 91
        4
 64
     7
 65
   257
 75
     1
175
     1
 42
1.0
 92
        8
 66
     7
 43
1.0
 76
     1
 77
     6
 78
     2
 67
     7
 79
     5
170
     0
171
     0
290
     0
174
     0
 93
       13
 44
0.0
173
     0
291
     1
 45
0.0
1001
ACAD
1000
AcDbSavedByObjectVersion
1070
     0
  0
VISUALSTYLE
  5
2F63
102
{ACAD_XDICTIONARY
360
3299
102
}
102
{ACAD_REACTORS
330
2F61
102
}
330
2F61
100
AcDbVisualStyle
  2

 70
     1
 71
     2
 72
     1
 73
     1
 90
        2
 40
-0.6
 41
30.0
 62
     5
 63
     7
421
 16777215
 74
     1
 91
        4
 64
     7
 65
   257
 75
     1
175
     1
 42
1.0
 92
        0
 66
   257
 43
1.0
 76
     1
 77
     6
 78
     2
 67
     7
 79
     5
170
     0
171
     0
290
     0
174
     0
 93
       13
 44
0.0
173
     0
291
     1
 45
0.0
1001
ACAD
1000
AcDbSavedByObjectVersion
1070
     0
  0
VISUALSTYLE
  5
2F64
102
{ACAD_XDICTIONARY
360
329B
102
}
102
{ACAD_REACTORS
330
2F61
102
}
330
2F61
100
AcDbVisualStyle
  2

 70
     2
 71
     2
 72
     2
 73
     1
 90
        2
 40
-0.6
 41
30.0
 62
     5
 63
     7
421
 16777215
 74
     0
 91
        4
 64
     7
 65
   257
 75
     1
175
     1
 42
1.0
 92
        0
 66
     7
 43
1.0
 76
     1
 77
     6
 78
     2
 67
     7
 79
     5
170
     0
171
     0
290
     0
174
     0
 93
       13
 44
0.0
173
     0
291
     1
 45
0.0
1001
ACAD
1000
AcDbSavedByObjectVersion
1070
     0
  0
VISUALSTYLE
  5
2F65
102
{ACAD_XDICTIONARY
360
329D
102
}
102
{ACAD_REACTORS
330
2F61
102
}
330
2F61
100
AcDbVisualStyle
  2

 70
     3
 71
     2
 72
     2
 73
     1
 90
        2
 40
-0.6
 41
30.0
 62
     5
 63
     7
421
 16777215
 74
     1
 91
        4
 64
     7
 65
   257
 75
     1
175
     1
 42
1.0
 92
        0
 66
   257
 43
1.0
 76
     1
 77
     6
 78
     2
 67
     7
 79
     5
170
     0
171
     0
290
     0
174
     0
 93
       13
 44
0.0
173
     0
291
     1
 45
0.0
1001
ACAD
1000
AcDbSavedByObjectVersion
1070
     0
  0
VISUALSTYLE
  5
3214
102
{ACAD_XDICTIONARY
360
32B9
102
}
102
{ACAD_REACTORS
330
2F61
102
}
330
2F61
100
AcDbVisualStyle
  2
Hidden
 70
     6
 71
     1
 72
     2
 73
     2
 90
        0
 40
-0.6
 41
-30.0
 62
     5
 63
     7
421
 16777215
 74
     2
 91
        2
 64
     7
 65
   257
 75
     2
175
     1
 42
40.0
 92
        0
 66
   257
 43
1.0
 76
     1
 77
     6
 78
     2
 67
     7
 79
     3
170
     0
171
     0
290
     0
174
     0
 93
        1
 44
0.0
173
     0
291
     0
 45
0.0
1001
ACAD
1000
AcDbSavedByObjectVersion
1070
     0
  0
VISUALSTYLE
  5
321A
102
{ACAD_XDICTIONARY
360
32C5
102
}
102
{ACAD_REACTORS
330
2F61
102
}
330
2F61
100
AcDbVisualStyle
  2
JitterOff
 70
    20
 71
     2
 72
     2
 73
     0
 90
        0
 40
-0.6
 41
-30.0
 62
     5
 63
     7
421
 16777215
 74
     1
 91
        4
 64
     7
 65
   257
 75
     1
175
     1
 42
1.0
 92
       10
 66
     7
 43
1.0
 76
     1
 77
     6
 78
     2
 67
     7
 79
     5
170
     0
171
     0
290
     0
174
     0
 93
        1
 44
0.0
173
     0
291
     1
 45
0.0
1001
ACAD
1000
AcDbSavedByObjectVersion
1070
     0
  0
VISUALSTYLE
  5
2F6F
102
{ACAD_XDICTIONARY
360
32B1
102
}
102
{ACAD_REACTORS
330
2F61
102
}
330
2F61
100
AcDbVisualStyle
  2

 70
    14
 71
     2
 72
     2
 73
     0
 90
        0
 40
-0.6
 41
-30.0
 62
     5
 63
     7
421
 16777215
 74
     1
 91
        4
 64
     7
 65
   257
 75
     7
175
     7
 42
1.0
 92
        8
 66
     7
 43
1.0
 76
     1
 77
     6
 78
     2
 67
     7
 79
     5
170
     0
171
     0
290
     0
174
     0
 93
        1
 44
0.0
173
     0
291
     1
 45
0.0
1001
ACAD
1000
AcDbSavedByObjectVersion
1070
     0
  0
VISUALSTYLE
  5
321B
102
{ACAD_XDICTIONARY
360
32C7
102
}
102
{ACAD_REACTORS
330
2F61
102
}
330
2F61
100
AcDbVisualStyle
  2
OverhangOff
 70
    21
 71
     2
 72
     2
 73
     0
 90
        0
 40
-0.6
 41
-30.0
 62
     5
 63
     7
421
 16777215
 74
     1
 91
        4
 64
     7
 65
   257
 75
     1
175
     1
 42
1.0
 92
        9
 66
     7
 43
1.0
 76
     1
 77
     6
 78
     2
 67
     7
 79
     5
170
     0
171
     0
290
     0
174
     0
 93
        1
 44
0.0
173
     0
291
     1
 45
0.0
1001
ACAD
1000
AcDbSavedByObjectVersion
1070
     0
  0
VISUALSTYLE
  5
2F6B
102
{ACAD_XDICTIONARY
360
32A9
102
}
102
{ACAD_REACTORS
330
2F61
102
}
330
2F61
100
AcDbVisualStyle
  2

 70
     8
 71
     2
 72
     2
 73
     0
 90
        0
 40
-0.6
 41
-30.0
 62
     5
 63
     7
421
 16777215
 74
     1
 91
        0
 64
     7
 65
   257
 75
     1
175
     1
 42
1.0
 92
        8
 66
     8
424
  7895160
 43
1.0
 76
     1
 77
     6
 78
     2
 67
     7
 79
     5
170
     0
171
     0
290
     0
174
     0
 93
       13
 44
0.0
173
     0
291
     0
 45
0.0
1001
ACAD
1000
AcDbSavedByObjectVersion
1070
     0
  0
VISUALSTYLE
  5
3219
102
{ACAD_XDICTIONARY
360
32C3
102
}
102
{ACAD_REACTORS
330
2F61
102
}
330
2F61
100
AcDbVisualStyle
  2
Shaded
 70
    27
 71
     2
 72
     2
 73
     1
 90
        2
 40
-0.6
 41
30.0
 62
     5
 63
     7
421
 16777215
 74
     0
 91
        4
 64
     7
 65
   257
 75
     1
175
     1
 42
1.0
 92
        8
 66
   257
 43
1.0
 76
     1
 77
     6
 78
     2
 67
     8
425
  7895160
 79
     3
170
     0
171
     0
290
     0
174
     0
 93
        5
 44
0.0
173
     0
291
     0
 45
0.0
1001
ACAD
1000
AcDbSavedByObjectVersion
1070
     0
  0
VISUALSTYLE
  5
3218
102
{ACAD_XDICTIONARY
360
32C1
102
}
102
{ACAD_REACTORS
330
2F61
102
}
330
2F61
100
AcDbVisualStyle
  2
Shaded with edges
 70
    26
 71
     2
 72
     2
 73
     1
 90
        2
 40
-0.6
 41
30.0
 62
     5
 63
     7
421
 16777215
 74
     1
 91
       10
 64
     7
 65
   257
 75
     2
175
     1
 42
1.0
 92
        8
 66
   257
 43
1.0
 76
     1
 77
     6
 78
     2
 67
     7
 79
     3
170
     0
171
     0
290
     0
174
     0
 93
        5
 44
0.0
173
     0
291
     0
 45
0.0
1001
ACAD
1000
AcDbSavedByObjectVersion
1070
     0
  0
VISUALSTYLE
  5
3215
102
{ACAD_XDICTIONARY
360
32BB
102
}
102
{ACAD_REACTORS
330
2F61
102
}
330
2F61
100
AcDbVisualStyle
  2
Shades of Gray
 70
    23
 71
     2
 72
     2
 73
     3
 90
        0
 40
-0.6
 41
-30.0
 62
     5
 63
     7
421
 16777215
 74
     2
 91
        2
 64
     7
 65
     7
 75
     1
175
     1
 42
40.0
 92
        8
 66
     7
 43
1.0
 76
     1
 77
     6
 78
     2
 67
     7
 79
     3
170
     0
171
     0
290
     0
174
     0
 93
        1
 44
0.0
173
     0
291
     0
 45
0.0
1001
ACAD
1000
AcDbSavedByObjectVersion
1070
     0
  0
VISUALSTYLE
  5
3216
102
{ACAD_XDICTIONARY
360
32BD
102
}
102
{ACAD_REACTORS
330
2F61
102
}
330
2F61
100
AcDbVisualStyle
  2
Sketchy
 70
    24
 71
     1
 72
     2
 73
     2
 90
        0
 40
-0.6
 41
-30.0
 62
     5
 63
     7
421
 16777215
 74
     2
 91
        2
 64
     7
 65
     7
 75
     1
175
     1
 42
40.0
 92
       11
 66
     7
 43
1.0
 76
     1
 77
     6
 78
     2
 67
     7
 79
     6
170
     0
171
     0
290
     0
174
     0
 93
        1
 44
0.0
173
     0
291
     0
 45
0.0
1001
ACAD
1000
AcDbSavedByObjectVersion
1070
     0
  0
VISUALSTYLE
  5
2F6E
102
{ACAD_XDICTIONARY
360
32AF
102
}
102
{ACAD_REACTORS
330
2F61
102
}
330
2F61
100
AcDbVisualStyle
  2

 70
    13
 71
     2
 72
     2
 73
     0
 90
        0
 40
-0.6
 41
-30.0
 62
     5
 63
     7
421
 16777215
 74
     1
 91
        4
 64
     7
 65
   257
 75
     1
175
     1
 42
1.0
 92
       12
 66
     7
 43
1.0
 76
     1
 77
     6
 78
     2
 67
     7
 79
     5
170
     0
171
     0
290
     0
174
     0
 93
        1
 44
0.0
173
     0
291
     1
 45
0.0
1001
ACAD
1000
AcDbSavedByObjectVersion
1070
     0
  0
VISUALSTYLE
  5
3213
102
{ACAD_XDICTIONARY
360
32B7
102
}
102
{ACAD_REACTORS
330
2F61
102
}
330
2F61
100
AcDbVisualStyle
  2
Wireframe
 70
     5
 71
     0
 72
     2
 73
     0
 90
        0
 40
-0.6
 41
-30.0
 62
     5
 63
     7
421
 16777215
 74
     1
 91
        4
 64
     7
 65
   257
 75
     1
175
     1
 42
1.0
 92
        0
 66
   257
 43
1.0
 76
     1
 77
     6
 78
     2
 67
     7
 79
     3
170
     0
171
     0
290
     0
174
     0
 93
        1
 44
0.0
173
     0
291
     0
 45
0.0
1001
ACAD
1000
AcDbSavedByObjectVersion
1070
     0
  0
VISUALSTYLE
  5
3217
102
{ACAD_XDICTIONARY
360
32BF
102
}
102
{ACAD_REACTORS
330
2F61
102
}
330
2F61
100
AcDbVisualStyle
  2
X-Ray
 70
    25
 71
     2
 72
     2
 73
     1
 90
        1
 40
0.5
 41
-30.0
 62
     5
 63
     7
421
 16777215
 74
     1
 91
        0
 64
     7
 65
   257
 75
     1
175
     1
 42
1.0
 92
        8
 66
     7
 43
1.0
 76
     1
 77
     6
 78
     2
 67
     7
 79
     3
170
     0
171
     0
290
     0
174
     0
 93
       13
 44
0.0
173
     0
291
     0
 45
0.0
1001
ACAD
1000
AcDbSavedByObjectVersion
1070
     0
  0
DICTIONARYVAR
  5
328F
102
{ACAD_REACTORS
330
314C
102
}
330
314C
100
DictionaryVariables
280
     0
  1
1:1
  0
DICTIONARYVAR
  5
328B
102
{ACAD_REACTORS
330
314C
102
}
330
314C
100
DictionaryVariables
280
     0
  1
STANDARD
  0
DICTIONARYVAR
  5
314D
102
{ACAD_REACTORS
330
314C
102
}
330
314C
100
DictionaryVariables
280
     0
  1
STANDARD
  0
DICTIONARYVAR
  5
328C
102
{ACAD_REACTORS
330
314C
102
}
330
314C
100
DictionaryVariables
280
     0
  1
Imperial24
  0
DICTIONARYVAR
  5
328D
102
{ACAD_REACTORS
330
314C
102
}
330
314C
100
DictionaryVariables
280
     0
  1
Imperial24
  0
DICTIONARYVAR
  5
3291
102
{ACAD_REACTORS
330
314C
102
}
330
314C
100
DictionaryVariables
280
     0
  1
1
  0
DICTIONARYVAR
  5
3292
102
{ACAD_REACTORS
330
314C
102
}
330
314C
100
DictionaryVariables
280
     0
  1
15
  0
DICTIONARYVAR
  5
3290
102
{ACAD_REACTORS
330
314C
102
}
330
314C
100
DictionaryVariables
280
     0
  1
0
  0
DICTIONARYVAR
  5
328E
102
{ACAD_REACTORS
330
314C
102
}
330
314C
100
DictionaryVariables
280
     0
  1
0
  0
DICTIONARY
  5
32CD
330
3234
100
AcDbDictionary
280
     1
281
     1
  3
ACAD_XREC_ROUNDTRIP
360
32CE
  0
DICTIONARY
  5
3150
330
2F5F
100
AcDbDictionary
280
     1
281
     1
  3
ACAD_XREC_ROUNDTRIP
360
3151
  0
DICTIONARY
  5
314E
330
2F5E
100
AcDbDictionary
280
     1
281
     1
  3
ACAD_XREC_ROUNDTRIP
360
314F
  0
DICTIONARY
  5
3152
330
2F60
100
AcDbDictionary
280
     1
281
     1
  3
ACAD_XREC_ROUNDTRIP
360
3153
  0
DICTIONARY
  5
32CB
330
3232
100
AcDbDictionary
280
     1
281
     1
  3
ACAD_XREC_ROUNDTRIP
360
32CC
  0
DICTIONARY
  5
3294
330
2F7E
100
AcDbDictionary
280
     1
281
     1
  3
ACAD_ROUNDTRIP_2008_TABLESTYLE_CELLSTYLEMAP
360
3295
  0
DICTIONARY
  5
32A1
330
2F67
100
AcDbDictionary
280
     1
281
     1
  3
ACAD_XREC_ROUNDTRIP
360
32A2
  0
DICTIONARY
  5
32A5
330
2F69
100
AcDbDictionary
280
     1
281
     1
  3
ACAD_XREC_ROUNDTRIP
360
32A6
  0
DICTIONARY
  5
32A3
330
2F68
100
AcDbDictionary
280
     1
281
     1
  3
ACAD_XREC_ROUNDTRIP
360
32A4
  0
DICTIONARY
  5
329F
330
2F66
100
AcDbDictionary
280
     1
281
     1
  3
ACAD_XREC_ROUNDTRIP
360
32A0
  0
DICTIONARY
  5
32AD
330
2F6D
100
AcDbDictionary
280
     1
281
     1
  3
ACAD_XREC_ROUNDTRIP
360
32AE
  0
DICTIONARY
  5
32B5
330
2F71
100
AcDbDictionary
280
     1
281
     1
  3
ACAD_XREC_ROUNDTRIP
360
32B6
  0
DICTIONARY
  5
32A7
330
2F6A
100
AcDbDictionary
280
     1
281
     1
  3
ACAD_XREC_ROUNDTRIP
360
32A8
  0
DICTIONARY
  5
32AB
330
2F6C
100
AcDbDictionary
280
     1
281
     1
  3
ACAD_XREC_ROUNDTRIP
360
32AC
  0
DICTIONARY
  5
32C9
330
321C
100
AcDbDictionary
280
     1
281
     1
  3
ACAD_XREC_ROUNDTRIP
360
32CA
  0
DICTIONARY
  5
32B3
330
2F70
100
AcDbDictionary
280
     1
281
     1
  3
ACAD_XREC_ROUNDTRIP
360
32B4
  0
DICTIONARY
  5
3297
330
2F62
100
AcDbDictionary
280
     1
281
     1
  3
ACAD_XREC_ROUNDTRIP
360
3298
  0
DICTIONARY
  5
3299
330
2F63
100
AcDbDictionary
280
     1
281
     1
  3
ACAD_XREC_ROUNDTRIP
360
329A
  0
DICTIONARY
  5
329B
330
2F64
100
AcDbDictionary
280
     1
281
     1
  3
ACAD_XREC_ROUNDTRIP
360
329C
  0
DICTIONARY
  5
329D
330
2F65
100
AcDbDictionary
280
     1
281
     1
  3
ACAD_XREC_ROUNDTRIP
360
329E
  0
DICTIONARY
  5
32B9
330
3214
100
AcDbDictionary
280
     1
281
     1
  3
ACAD_XREC_ROUNDTRIP
360
32BA
  0
DICTIONARY
  5
32C5
330
321A
100
AcDbDictionary
280
     1
281
     1
  3
ACAD_XREC_ROUNDTRIP
360
32C6
  0
DICTIONARY
  5
32B1
330
2F6F
100
AcDbDictionary
280
     1
281
     1
  3
ACAD_XREC_ROUNDTRIP
360
32B2
  0
DICTIONARY
  5
32C7
330
321B
100
AcDbDictionary
280
     1
281
     1
  3
ACAD_XREC_ROUNDTRIP
360
32C8
  0
DICTIONARY
  5
32A9
330
2F6B
100
AcDbDictionary
280
     1
281
     1
  3
ACAD_XREC_ROUNDTRIP
360
32AA
  0
DICTIONARY
  5
32C3
330
3219
100
AcDbDictionary
280
     1
281
     1
  3
ACAD_XREC_ROUNDTRIP
360
32C4
  0
DICTIONARY
  5
32C1
330
3218
100
AcDbDictionary
280
     1
281
     1
  3
ACAD_XREC_ROUNDTRIP
360
32C2
  0
DICTIONARY
  5
32BB
330
3215
100
AcDbDictionary
280
     1
281
     1
  3
ACAD_XREC_ROUNDTRIP
360
32BC
  0
DICTIONARY
  5
32BD
330
3216
100
AcDbDictionary
280
     1
281
     1
  3
ACAD_XREC_ROUNDTRIP
360
32BE
  0
DICTIONARY
  5
32AF
330
2F6E
100
AcDbDictionary
280
     1
281
     1
  3
ACAD_XREC_ROUNDTRIP
360
32B0
  0
DICTIONARY
  5
32B7
330
3213
100
AcDbDictionary
280
     1
281
     1
  3
ACAD_XREC_ROUNDTRIP
360
32B8
  0
DICTIONARY
  5
32BF
330
3217
100
AcDbDictionary
280
     1
281
     1
  3
ACAD_XREC_ROUNDTRIP
360
32C0
  0
XRECORD
  5
32CE
102
{ACAD_REACTORS
330
32CD
102
}
330
32CD
100
AcDbXrecord
280
     1
102
DISPLAYNAME
  1
Imperial24
102
FLAGS
 90
        0
  0
XRECORD
  5
3151
102
{ACAD_REACTORS
330
3150
102
}
330
3150
100
AcDbXrecord
280
     1
102
MATERIAL
148
0.0
149
0.0
149
0.0
 93
        0
 94
       63
282
     0
 72
     1
 77
     1
171
     1
175
     1
179
     1
273
     0
  0
XRECORD
  5
314F
102
{ACAD_REACTORS
330
314E
102
}
330
314E
100
AcDbXrecord
280
     1
102
MATERIAL
148
0.0
149
0.0
149
0.0
 93
        0
 94
       63
282
     0
 72
     1
 77
     1
171
     1
175
     1
179
     1
273
     0
  0
XRECORD
  5
3153
102
{ACAD_REACTORS
330
3152
102
}
330
3152
100
AcDbXrecord
280
     1
102
MATERIAL
148
0.0
149
0.0
149
0.0
 93
        0
 94
       63
282
     0
 72
     1
 77
     1
171
     1
175
     1
179
     1
273
     0
  0
XRECORD
  5
32CC
102
{ACAD_REACTORS
330
32CB
102
}
330
32CB
100
AcDbXrecord
280
     1
102
DISPLAYNAME
  1
Imperial24
102
FLAGS
 90
        0
  0
CELLSTYLEMAP
  5
3295
102
{ACAD_REACTORS
330
3294
102
}
330
3294
100
AcDbCellStyleMap
 90
        3
300
CELLSTYLE
  1
TABLEFORMAT_BEGIN
 90
        5
170
     1
 91
        0
 92
    32768
 62
   257
 93
        1
300
CONTENTFORMAT
  1
CONTENTFORMAT_BEGIN
 90
        0
 91
        0
 92
      512
 93
        0
300

 40
0.0
140
1.0
 94
        5
 62
     0
340
2F73
144
0.25
309
CONTENTFORMAT_END
171
     0
 94
        6
 95
        1
302
GRIDFORMAT
  1
GRIDFORMAT_BEGIN
 90
        0
 91
        1
 62
     0
 92
       -2
340
0
 93
        0
 40
0.045
309
GRIDFORMAT_END
 95
        2
302
GRIDFORMAT
  1
GRIDFORMAT_BEGIN
 90
        0
 91
        1
 62
     0
 92
       -2
340
0
 93
        0
 40
0.045
309
GRIDFORMAT_END
 95
        4
302
GRIDFORMAT
  1
GRIDFORMAT_BEGIN
 90
        0
 91
        1
 62
     0
 92
       -2
340
0
 93
        0
 40
0.045
309
GRIDFORMAT_END
 95
        8
302
GRIDFORMAT
  1
GRIDFORMAT_BEGIN
 90
        0
 91
        1
 62
     0
 92
       -2
340
0
 93
        0
 40
0.045
309
GRIDFORMAT_END
 95
       16
302
GRIDFORMAT
  1
GRIDFORMAT_BEGIN
 90
        0
 91
        1
 62
     0
 92
       -2
340
0
 93
        0
 40
0.045
309
GRIDFORMAT_END
 95
       32
302
GRIDFORMAT
  1
GRIDFORMAT_BEGIN
 90
        0
 91
        1
 62
     0
 92
       -2
340
0
 93
        0
 40
0.045
309
GRIDFORMAT_END
309
TABLEFORMAT_END
  1
CELLSTYLE_BEGIN
 90
        1
 91
        1
300
_TITLE
309
CELLSTYLE_END
300
CELLSTYLE
  1
TABLEFORMAT_BEGIN
 90
        5
170
     1
 91
        0
 92
        0
 62
   257
 93
        1
300
CONTENTFORMAT
  1
CONTENTFORMAT_BEGIN
 90
        0
 91
        0
 92
      512
 93
        0
300

 40
0.0
140
1.0
 94
        5
 62
     0
340
2F73
144
0.18
309
CONTENTFORMAT_END
171
     0
 94
        6
 95
        1
302
GRIDFORMAT
  1
GRIDFORMAT_BEGIN
 90
        0
 91
        1
 62
     0
 92
       -2
340
0
 93
        0
 40
0.045
309
GRIDFORMAT_END
 95
        2
302
GRIDFORMAT
  1
GRIDFORMAT_BEGIN
 90
        0
 91
        1
 62
     0
 92
       -2
340
0
 93
        0
 40
0.045
309
GRIDFORMAT_END
 95
        4
302
GRIDFORMAT
  1
GRIDFORMAT_BEGIN
 90
        0
 91
        1
 62
     0
 92
       -2
340
0
 93
        0
 40
0.045
309
GRIDFORMAT_END
 95
        8
302
GRIDFORMAT
  1
GRIDFORMAT_BEGIN
 90
        0
 91
        1
 62
     0
 92
       -2
340
0
 93
        0
 40
0.045
309
GRIDFORMAT_END
 95
       16
302
GRIDFORMAT
  1
GRIDFORMAT_BEGIN
 90
        0
 91
        1
 62
     0
 92
       -2
340
0
 93
        0
 40
0.045
309
GRIDFORMAT_END
 95
       32
302
GRIDFORMAT
  1
GRIDFORMAT_BEGIN
 90
        0
 91
        1
 62
     0
 92
       -2
340
0
 93
        0
 40
0.045
309
GRIDFORMAT_END
309
TABLEFORMAT_END
  1
CELLSTYLE_BEGIN
 90
        2
 91
        1
300
_HEADER
309
CELLSTYLE_END
300
CELLSTYLE
  1
TABLEFORMAT_BEGIN
 90
        5
170
     1
 91
        0
 92
        0
 62
   257
 93
        1
300
CONTENTFORMAT
  1
CONTENTFORMAT_BEGIN
 90
        0
 91
        0
 92
      512
 93
        0
300

 40
0.0
140
1.0
 94
        2
 62
     0
340
2F73
144
0.18
309
CONTENTFORMAT_END
171
     0
 94
        6
 95
        1
302
GRIDFORMAT
  1
GRIDFORMAT_BEGIN
 90
        0
 91
        1
 62
     0
 92
       -2
340
0
 93
        0
 40
0.045
309
GRIDFORMAT_END
 95
        2
302
GRIDFORMAT
  1
GRIDFORMAT_BEGIN
 90
        0
 91
        1
 62
     0
 92
       -2
340
0
 93
        0
 40
0.045
309
GRIDFORMAT_END
 95
        4
302
GRIDFORMAT
  1
GRIDFORMAT_BEGIN
 90
        0
 91
        1
 62
     0
 92
       -2
340
0
 93
        0
 40
0.045
309
GRIDFORMAT_END
 95
        8
302
GRIDFORMAT
  1
GRIDFORMAT_BEGIN
 90
        0
 91
        1
 62
     0
 92
       -2
340
0
 93
        0
 40
0.045
309
GRIDFORMAT_END
 95
       16
302
GRIDFORMAT
  1
GRIDFORMAT_BEGIN
 90
        0
 91
        1
 62
     0
 92
       -2
340
0
 93
        0
 40
0.045
309
GRIDFORMAT_END
 95
       32
302
GRIDFORMAT
  1
GRIDFORMAT_BEGIN
 90
        0
 91
        1
 62
     0
 92
       -2
340
0
 93
        0
 40
0.045
309
GRIDFORMAT_END
309
TABLEFORMAT_END
  1
CELLSTYLE_BEGIN
 90
        3
 91
        2
300
_DATA
309
CELLSTYLE_END
  0
XRECORD
  5
32A2
102
{ACAD_REACTORS
330
32A1
102
}
330
32A1
100
AcDbXrecord
280
     1
102
RTVSPost2010Prop28
280
     1
102
RTVSPost2010PropOp28
 70
     1
102
RTVSPost2010Prop29
280
     1
102
RTVSPost2010PropOp29
 70
     1
102
RTVSPost2010Prop30
280
     0
102
RTVSPost2010PropOp30
 70
     1
102
RTVSPost2010Prop31
280
     0
102
RTVSPost2010PropOp31
 70
     1
102
RTVSPost2010Prop32
280
     0
102
RTVSPost2010PropOp32
 70
     1
102
RTVSPost2010Prop33
280
     0
102
RTVSPost2010PropOp33
 70
     1
102
RTVSPost2010Prop34
280
     0
102
RTVSPost2010PropOp34
 70
     1
102
RTVSPost2010Prop35
280
     0
102
RTVSPost2010PropOp35
 70
     1
102
RTVSPost2010Prop36
280
     0
102
RTVSPost2010PropOp36
 70
     1
102
RTVSPost2010Prop37
 90
       50
102
RTVSPost2010PropOp37
 70
     1
102
RTVSPost2010Prop38
140
0.0
102
RTVSPost2010PropOp38
 70
     1
102
RTVSPost2010Prop39
140
1.0
102
RTVSPost2010PropOp39
 70
     1
102
RTVSPost2010Prop40
 90
        0
102
RTVSPost2010PropOp40
 70
     1
102
RTVSPost2010Prop41ColorIndex
 90
       18
102
RTVSPost2010Prop41ColorRGB
 90
        0
102
RTVSPost2010PropOp41
 70
     1
102
RTVSPost2010Prop42
 90
       50
102
RTVSPost2010PropOp42
 70
     1
102
RTVSPost2010Prop43
 90
        3
102
RTVSPost2010PropOp43
 70
     1
102
RTVSPost2010Prop44ColorIndex
 90
        5
102
RTVSPost2010Prop44ColorRGB
 90
      255
102
RTVSPost2010PropOp44
 70
     1
102
RTVSPost2010Prop45
280
     0
102
RTVSPost2010PropOp45
 70
     1
102
RTVSPost2010Prop46
 90
       50
102
RTVSPost2010PropOp46
 70
     1
102
RTVSPost2010Prop47
 90
       50
102
RTVSPost2010PropOp47
 70
     1
102
RTVSPost2010Prop48
 90
       50
102
RTVSPost2010PropOp48
 70
     1
102
RTVSPost2010Prop49
280
     0
102
RTVSPost2010PropOp49
 70
     1
102
RTVSPost2010Prop50
 90
       50
102
RTVSPost2010PropOp50
 70
     1
102
RTVSPost2010Prop51ColorIndex
 90
      256
102
RTVSPost2010Prop51ColorRGB
 90
-16777216
102
RTVSPost2010PropOp51
 70
     0
102
RTVSPost2010Prop52
140
1.0
102
RTVSPost2010PropOp52
 70
     0
102
RTVSPost2010Prop53
 90
        2
102
RTVSPost2010PropOp53
 70
     1
102
RTVSPost2010Prop54
  1
strokes_ogs.tif
102
RTVSPost2010PropOp54
 70
     1
102
RTVSPost2010Prop55
280
     0
102
RTVSPost2010PropOp55
 70
     1
102
RTVSPost2010Prop56
140
1.0
102
RTVSPost2010PropOp56
 70
     1
102
RTVSPost2010Prop57
140
1.0
102
RTVSPost2010PropOp57
 70
     1
102
RTVSPropertyOp0
 70
     1
102
RTVSPropertyOp1
 70
     1
102
RTVSPropertyOp2
 70
     1
102
RTVSPropertyOp3
 70
     1
102
RTVSPropertyOp4
 70
     1
102
RTVSPropertyOp5
 70
     1
102
RTVSPropertyOp6
 70
     1
102
RTVSPropertyOp7
 70
     1
102
RTVSPropertyOp8
 70
     1
102
RTVSPropertyOp9
 70
     1
102
RTVSPropertyOp10
 70
     1
102
RTVSPropertyOp11
 70
     1
102
RTVSPropertyOp12
 70
     1
102
RTVSPropertyOp13
 70
     1
102
RTVSPropertyOp14
 70
     1
102
RTVSPropertyOp15
 70
     1
102
RTVSPropertyOp16
 70
     1
102
RTVSPropertyOp17
 70
     1
102
RTVSPropertyOp18
 70
     1
102
RTVSPropertyOp19
 70
     1
102
RTVSPropertyOp20
 70
     1
102
RTVSPropertyOp21
 70
     1
102
RTVSPropertyOp22
 70
     1
102
RTVSPropertyOp23
 70
     1
102
RTVSPropertyOp24
 70
     1
102
RTVSPropertyOp25
 70
     1
102
RTVSPropertyOp26
 70
     1
102
RTVSPropertyOp27
 70
     1
102
RTVSPropertyOp28
 70
     1
102
RTVSPropertyOp29
 70
     1
102
RTVSPropertyOp30
 70
     1
102
RTVSPropertyOp31
 70
     1
102
RTVSPropertyOp32
 70
     1
102
RTVSPropertyOp33
 70
     1
102
RTVSPropertyOp34
 70
     1
102
RTVSPropertyOp35
 70
     1
102
RTVSPropertyOp36
 70
     1
102
RTVSPropertyOp37
 70
     1
102
RTVSPropertyOp38
 70
     1
102
RTVSPropertyOp39
 70
     1
102
RTVSPropertyOp40
 70
     1
102
RTVSPropertyOp41
 70
     1
102
RTVSPropertyOp42
 70
     1
102
RTVSPropertyOp43
 70
     1
102
RTVSPropertyOp44
 70
     1
102
RTVSPropertyOp45
 70
     1
102
RTVSPropertyOp46
 70
     1
102
RTVSPropertyOp47
 70
     1
102
RTVSPropertyOp48
 70
     1
102
RTVSPropertyOp49
 70
     1
102
RTVSPropertyOp50
 70
     1
102
RTVSPropertyOp51
 70
     0
102
RTVSPropertyOp52
 70
     0
102
RTVSPropertyOp53
 70
     1
102
RTVSPropertyOp54
 70
     1
102
RTVSPropertyOp55
 70
     1
102
RTVSPropertyOp56
 70
     1
102
RTVSPropertyOp57
 70
     1
102
RTVSPropertyOp58
 70
     1
102
RTVSPropertyOp59
 70
     1
102
RTVSPropertyOp60
 70
     1
102
RTVSPropertyOp61
 70
     1
102
RTVSPropertyOp62
 70
     1
  0
XRECORD
  5
32A6
102
{ACAD_REACTORS
330
32A5
102
}
330
32A5
100
AcDbXrecord
280
     1
102
RTVSPost2010Prop28
280
     0
102
RTVSPost2010PropOp28
 70
     1
102
RTVSPost2010Prop29
280
     1
102
RTVSPost2010PropOp29
 70
     1
102
RTVSPost2010Prop30
280
     1
102
RTVSPost2010PropOp30
 70
     1
102
RTVSPost2010Prop31
280
     0
102
RTVSPost2010PropOp31
 70
     1
102
RTVSPost2010Prop32
280
     0
102
RTVSPost2010PropOp32
 70
     1
102
RTVSPost2010Prop33
280
     0
102
RTVSPost2010PropOp33
 70
     1
102
RTVSPost2010Prop34
280
     0
102
RTVSPost2010PropOp34
 70
     1
102
RTVSPost2010Prop35
280
     0
102
RTVSPost2010PropOp35
 70
     1
102
RTVSPost2010Prop36
280
     0
102
RTVSPost2010PropOp36
 70
     1
102
RTVSPost2010Prop37
 90
       50
102
RTVSPost2010PropOp37
 70
     1
102
RTVSPost2010Prop38
140
0.0
102
RTVSPost2010PropOp38
 70
     1
102
RTVSPost2010Prop39
140
1.0
102
RTVSPost2010PropOp39
 70
     1
102
RTVSPost2010Prop40
 90
        0
102
RTVSPost2010PropOp40
 70
     1
102
RTVSPost2010Prop41ColorIndex
 90
       18
102
RTVSPost2010Prop41ColorRGB
 90
        0
102
RTVSPost2010PropOp41
 70
     1
102
RTVSPost2010Prop42
 90
       50
102
RTVSPost2010PropOp42
 70
     1
102
RTVSPost2010Prop43
 90
        3
102
RTVSPost2010PropOp43
 70
     1
102
RTVSPost2010Prop44ColorIndex
 90
        5
102
RTVSPost2010Prop44ColorRGB
 90
      255
102
RTVSPost2010PropOp44
 70
     1
102
RTVSPost2010Prop45
280
     0
102
RTVSPost2010PropOp45
 70
     1
102
RTVSPost2010Prop46
 90
       50
102
RTVSPost2010PropOp46
 70
     1
102
RTVSPost2010Prop47
 90
       50
102
RTVSPost2010PropOp47
 70
     1
102
RTVSPost2010Prop48
 90
       50
102
RTVSPost2010PropOp48
 70
     1
102
RTVSPost2010Prop49
280
     0
102
RTVSPost2010PropOp49
 70
     1
102
RTVSPost2010Prop50
 90
       50
102
RTVSPost2010PropOp50
 70
     1
102
RTVSPost2010Prop51ColorIndex
 90
      256
102
RTVSPost2010Prop51ColorRGB
 90
-16777216
102
RTVSPost2010PropOp51
 70
     0
102
RTVSPost2010Prop52
140
1.0
102
RTVSPost2010PropOp52
 70
     0
102
RTVSPost2010Prop53
 90
        2
102
RTVSPost2010PropOp53
 70
     1
102
RTVSPost2010Prop54
  1
strokes_ogs.tif
102
RTVSPost2010PropOp54
 70
     1
102
RTVSPost2010Prop55
280
     0
102
RTVSPost2010PropOp55
 70
     1
102
RTVSPost2010Prop56
140
1.0
102
RTVSPost2010PropOp56
 70
     1
102
RTVSPost2010Prop57
140
1.0
102
RTVSPost2010PropOp57
 70
     1
102
RTVSPropertyOp0
 70
     1
102
RTVSPropertyOp1
 70
     1
102
RTVSPropertyOp2
 70
     1
102
RTVSPropertyOp3
 70
     1
102
RTVSPropertyOp4
 70
     1
102
RTVSPropertyOp5
 70
     1
102
RTVSPropertyOp6
 70
     1
102
RTVSPropertyOp7
 70
     1
102
RTVSPropertyOp8
 70
     1
102
RTVSPropertyOp9
 70
     1
102
RTVSPropertyOp10
 70
     1
102
RTVSPropertyOp11
 70
     1
102
RTVSPropertyOp12
 70
     1
102
RTVSPropertyOp13
 70
     1
102
RTVSPropertyOp14
 70
     1
102
RTVSPropertyOp15
 70
     1
102
RTVSPropertyOp16
 70
     1
102
RTVSPropertyOp17
 70
     1
102
RTVSPropertyOp18
 70
     1
102
RTVSPropertyOp19
 70
     1
102
RTVSPropertyOp20
 70
     1
102
RTVSPropertyOp21
 70
     1
102
RTVSPropertyOp22
 70
     1
102
RTVSPropertyOp23
 70
     1
102
RTVSPropertyOp24
 70
     1
102
RTVSPropertyOp25
 70
     1
102
RTVSPropertyOp26
 70
     1
102
RTVSPropertyOp27
 70
     1
102
RTVSPropertyOp28
 70
     1
102
RTVSPropertyOp29
 70
     1
102
RTVSPropertyOp30
 70
     1
102
RTVSPropertyOp31
 70
     1
102
RTVSPropertyOp32
 70
     1
102
RTVSPropertyOp33
 70
     1
102
RTVSPropertyOp34
 70
     1
102
RTVSPropertyOp35
 70
     1
102
RTVSPropertyOp36
 70
     1
102
RTVSPropertyOp37
 70
     1
102
RTVSPropertyOp38
 70
     1
102
RTVSPropertyOp39
 70
     1
102
RTVSPropertyOp40
 70
     1
102
RTVSPropertyOp41
 70
     1
102
RTVSPropertyOp42
 70
     1
102
RTVSPropertyOp43
 70
     1
102
RTVSPropertyOp44
 70
     1
102
RTVSPropertyOp45
 70
     1
102
RTVSPropertyOp46
 70
     1
102
RTVSPropertyOp47
 70
     1
102
RTVSPropertyOp48
 70
     1
102
RTVSPropertyOp49
 70
     1
102
RTVSPropertyOp50
 70
     1
102
RTVSPropertyOp51
 70
     0
102
RTVSPropertyOp52
 70
     0
102
RTVSPropertyOp53
 70
     1
102
RTVSPropertyOp54
 70
     1
102
RTVSPropertyOp55
 70
     1
102
RTVSPropertyOp56
 70
     1
102
RTVSPropertyOp57
 70
     1
102
RTVSPropertyOp58
 70
     1
102
RTVSPropertyOp59
 70
     1
102
RTVSPropertyOp60
 70
     1
102
RTVSPropertyOp61
 70
     1
102
RTVSPropertyOp62
 70
     1
  0
XRECORD
  5
32A4
102
{ACAD_REACTORS
330
32A3
102
}
330
32A3
100
AcDbXrecord
280
     1
102
RTVSPost2010Prop28
280
     0
102
RTVSPost2010PropOp28
 70
     1
102
RTVSPost2010Prop29
280
     1
102
RTVSPost2010PropOp29
 70
     1
102
RTVSPost2010Prop30
280
     1
102
RTVSPost2010PropOp30
 70
     1
102
RTVSPost2010Prop31
280
     0
102
RTVSPost2010PropOp31
 70
     1
102
RTVSPost2010Prop32
280
     0
102
RTVSPost2010PropOp32
 70
     1
102
RTVSPost2010Prop33
280
     0
102
RTVSPost2010PropOp33
 70
     1
102
RTVSPost2010Prop34
280
     0
102
RTVSPost2010PropOp34
 70
     1
102
RTVSPost2010Prop35
280
     0
102
RTVSPost2010PropOp35
 70
     1
102
RTVSPost2010Prop36
280
     0
102
RTVSPost2010PropOp36
 70
     1
102
RTVSPost2010Prop37
 90
       50
102
RTVSPost2010PropOp37
 70
     1
102
RTVSPost2010Prop38
140
0.0
102
RTVSPost2010PropOp38
 70
     1
102
RTVSPost2010Prop39
140
1.0
102
RTVSPost2010PropOp39
 70
     1
102
RTVSPost2010Prop40
 90
        0
102
RTVSPost2010PropOp40
 70
     1
102
RTVSPost2010Prop41ColorIndex
 90
       18
102
RTVSPost2010Prop41ColorRGB
 90
        0
102
RTVSPost2010PropOp41
 70
     1
102
RTVSPost2010Prop42
 90
       50
102
RTVSPost2010PropOp42
 70
     1
102
RTVSPost2010Prop43
 90
        3
102
RTVSPost2010PropOp43
 70
     1
102
RTVSPost2010Prop44ColorIndex
 90
        5
102
RTVSPost2010Prop44ColorRGB
 90
      255
102
RTVSPost2010PropOp44
 70
     1
102
RTVSPost2010Prop45
280
     0
102
RTVSPost2010PropOp45
 70
     1
102
RTVSPost2010Prop46
 90
       50
102
RTVSPost2010PropOp46
 70
     1
102
RTVSPost2010Prop47
 90
       50
102
RTVSPost2010PropOp47
 70
     1
102
RTVSPost2010Prop48
 90
       50
102
RTVSPost2010PropOp48
 70
     1
102
RTVSPost2010Prop49
280
     0
102
RTVSPost2010PropOp49
 70
     1
102
RTVSPost2010Prop50
 90
       50
102
RTVSPost2010PropOp50
 70
     1
102
RTVSPost2010Prop51ColorIndex
 90
      256
102
RTVSPost2010Prop51ColorRGB
 90
-16777216
102
RTVSPost2010PropOp51
 70
     0
102
RTVSPost2010Prop52
140
1.0
102
RTVSPost2010PropOp52
 70
     0
102
RTVSPost2010Prop53
 90
        2
102
RTVSPost2010PropOp53
 70
     1
102
RTVSPost2010Prop54
  1
strokes_ogs.tif
102
RTVSPost2010PropOp54
 70
     1
102
RTVSPost2010Prop55
280
     0
102
RTVSPost2010PropOp55
 70
     1
102
RTVSPost2010Prop56
140
1.0
102
RTVSPost2010PropOp56
 70
     1
102
RTVSPost2010Prop57
140
1.0
102
RTVSPost2010PropOp57
 70
     1
102
RTVSPropertyOp0
 70
     1
102
RTVSPropertyOp1
 70
     1
102
RTVSPropertyOp2
 70
     1
102
RTVSPropertyOp3
 70
     1
102
RTVSPropertyOp4
 70
     1
102
RTVSPropertyOp5
 70
     1
102
RTVSPropertyOp6
 70
     1
102
RTVSPropertyOp7
 70
     1
102
RTVSPropertyOp8
 70
     1
102
RTVSPropertyOp9
 70
     1
102
RTVSPropertyOp10
 70
     1
102
RTVSPropertyOp11
 70
     1
102
RTVSPropertyOp12
 70
     1
102
RTVSPropertyOp13
 70
     1
102
RTVSPropertyOp14
 70
     1
102
RTVSPropertyOp15
 70
     1
102
RTVSPropertyOp16
 70
     1
102
RTVSPropertyOp17
 70
     1
102
RTVSPropertyOp18
 70
     1
102
RTVSPropertyOp19
 70
     1
102
RTVSPropertyOp20
 70
     1
102
RTVSPropertyOp21
 70
     1
102
RTVSPropertyOp22
 70
     1
102
RTVSPropertyOp23
 70
     1
102
RTVSPropertyOp24
 70
     1
102
RTVSPropertyOp25
 70
     1
102
RTVSPropertyOp26
 70
     1
102
RTVSPropertyOp27
 70
     1
102
RTVSPropertyOp28
 70
     1
102
RTVSPropertyOp29
 70
     1
102
RTVSPropertyOp30
 70
     1
102
RTVSPropertyOp31
 70
     1
102
RTVSPropertyOp32
 70
     1
102
RTVSPropertyOp33
 70
     1
102
RTVSPropertyOp34
 70
     1
102
RTVSPropertyOp35
 70
     1
102
RTVSPropertyOp36
 70
     1
102
RTVSPropertyOp37
 70
     1
102
RTVSPropertyOp38
 70
     1
102
RTVSPropertyOp39
 70
     1
102
RTVSPropertyOp40
 70
     1
102
RTVSPropertyOp41
 70
     1
102
RTVSPropertyOp42
 70
     1
102
RTVSPropertyOp43
 70
     1
102
RTVSPropertyOp44
 70
     1
102
RTVSPropertyOp45
 70
     1
102
RTVSPropertyOp46
 70
     1
102
RTVSPropertyOp47
 70
     1
102
RTVSPropertyOp48
 70
     1
102
RTVSPropertyOp49
 70
     1
102
RTVSPropertyOp50
 70
     1
102
RTVSPropertyOp51
 70
     0
102
RTVSPropertyOp52
 70
     0
102
RTVSPropertyOp53
 70
     1
102
RTVSPropertyOp54
 70
     1
102
RTVSPropertyOp55
 70
     1
102
RTVSPropertyOp56
 70
     1
102
RTVSPropertyOp57
 70
     1
102
RTVSPropertyOp58
 70
     1
102
RTVSPropertyOp59
 70
     1
102
RTVSPropertyOp60
 70
     1
102
RTVSPropertyOp61
 70
     1
102
RTVSPropertyOp62
 70
     1
  0
XRECORD
  5
32A0
102
{ACAD_REACTORS
330
329F
102
}
330
329F
100
AcDbXrecord
280
     1
102
RTVSPost2010Prop28
280
     0
102
RTVSPost2010PropOp28
 70
     1
102
RTVSPost2010Prop29
280
     1
102
RTVSPost2010PropOp29
 70
     1
102
RTVSPost2010Prop30
280
     1
102
RTVSPost2010PropOp30
 70
     1
102
RTVSPost2010Prop31
280
     0
102
RTVSPost2010PropOp31
 70
     1
102
RTVSPost2010Prop32
280
     0
102
RTVSPost2010PropOp32
 70
     1
102
RTVSPost2010Prop33
280
     0
102
RTVSPost2010PropOp33
 70
     1
102
RTVSPost2010Prop34
280
     0
102
RTVSPost2010PropOp34
 70
     1
102
RTVSPost2010Prop35
280
     0
102
RTVSPost2010PropOp35
 70
     1
102
RTVSPost2010Prop36
280
     0
102
RTVSPost2010PropOp36
 70
     1
102
RTVSPost2010Prop37
 90
       50
102
RTVSPost2010PropOp37
 70
     1
102
RTVSPost2010Prop38
140
0.0
102
RTVSPost2010PropOp38
 70
     1
102
RTVSPost2010Prop39
140
1.0
102
RTVSPost2010PropOp39
 70
     1
102
RTVSPost2010Prop40
 90
        0
102
RTVSPost2010PropOp40
 70
     1
102
RTVSPost2010Prop41ColorIndex
 90
       18
102
RTVSPost2010Prop41ColorRGB
 90
        0
102
RTVSPost2010PropOp41
 70
     1
102
RTVSPost2010Prop42
 90
       50
102
RTVSPost2010PropOp42
 70
     1
102
RTVSPost2010Prop43
 90
        3
102
RTVSPost2010PropOp43
 70
     1
102
RTVSPost2010Prop44ColorIndex
 90
        5
102
RTVSPost2010Prop44ColorRGB
 90
      255
102
RTVSPost2010PropOp44
 70
     1
102
RTVSPost2010Prop45
280
     0
102
RTVSPost2010PropOp45
 70
     1
102
RTVSPost2010Prop46
 90
       50
102
RTVSPost2010PropOp46
 70
     1
102
RTVSPost2010Prop47
 90
       50
102
RTVSPost2010PropOp47
 70
     1
102
RTVSPost2010Prop48
 90
       50
102
RTVSPost2010PropOp48
 70
     1
102
RTVSPost2010Prop49
280
     0
102
RTVSPost2010PropOp49
 70
     1
102
RTVSPost2010Prop50
 90
       50
102
RTVSPost2010PropOp50
 70
     1
102
RTVSPost2010Prop51ColorIndex
 90
      256
102
RTVSPost2010Prop51ColorRGB
 90
-16777216
102
RTVSPost2010PropOp51
 70
     0
102
RTVSPost2010Prop52
140
1.0
102
RTVSPost2010PropOp52
 70
     0
102
RTVSPost2010Prop53
 90
        2
102
RTVSPost2010PropOp53
 70
     1
102
RTVSPost2010Prop54
  1
strokes_ogs.tif
102
RTVSPost2010PropOp54
 70
     1
102
RTVSPost2010Prop55
280
     0
102
RTVSPost2010PropOp55
 70
     1
102
RTVSPost2010Prop56
140
1.0
102
RTVSPost2010PropOp56
 70
     1
102
RTVSPost2010Prop57
140
1.0
102
RTVSPost2010PropOp57
 70
     1
102
RTVSPropertyOp0
 70
     1
102
RTVSPropertyOp1
 70
     1
102
RTVSPropertyOp2
 70
     1
102
RTVSPropertyOp3
 70
     1
102
RTVSPropertyOp4
 70
     1
102
RTVSPropertyOp5
 70
     1
102
RTVSPropertyOp6
 70
     1
102
RTVSPropertyOp7
 70
     1
102
RTVSPropertyOp8
 70
     1
102
RTVSPropertyOp9
 70
     1
102
RTVSPropertyOp10
 70
     1
102
RTVSPropertyOp11
 70
     1
102
RTVSPropertyOp12
 70
     1
102
RTVSPropertyOp13
 70
     1
102
RTVSPropertyOp14
 70
     1
102
RTVSPropertyOp15
 70
     1
102
RTVSPropertyOp16
 70
     1
102
RTVSPropertyOp17
 70
     1
102
RTVSPropertyOp18
 70
     1
102
RTVSPropertyOp19
 70
     1
102
RTVSPropertyOp20
 70
     1
102
RTVSPropertyOp21
 70
     1
102
RTVSPropertyOp22
 70
     1
102
RTVSPropertyOp23
 70
     1
102
RTVSPropertyOp24
 70
     1
102
RTVSPropertyOp25
 70
     1
102
RTVSPropertyOp26
 70
     1
102
RTVSPropertyOp27
 70
     1
102
RTVSPropertyOp28
 70
     1
102
RTVSPropertyOp29
 70
     1
102
RTVSPropertyOp30
 70
     1
102
RTVSPropertyOp31
 70
     1
102
RTVSPropertyOp32
 70
     1
102
RTVSPropertyOp33
 70
     1
102
RTVSPropertyOp34
 70
     1
102
RTVSPropertyOp35
 70
     1
102
RTVSPropertyOp36
 70
     1
102
RTVSPropertyOp37
 70
     1
102
RTVSPropertyOp38
 70
     1
102
RTVSPropertyOp39
 70
     1
102
RTVSPropertyOp40
 70
     1
102
RTVSPropertyOp41
 70
     1
102
RTVSPropertyOp42
 70
     1
102
RTVSPropertyOp43
 70
     1
102
RTVSPropertyOp44
 70
     1
102
RTVSPropertyOp45
 70
     1
102
RTVSPropertyOp46
 70
     1
102
RTVSPropertyOp47
 70
     1
102
RTVSPropertyOp48
 70
     1
102
RTVSPropertyOp49
 70
     1
102
RTVSPropertyOp50
 70
     1
102
RTVSPropertyOp51
 70
     0
102
RTVSPropertyOp52
 70
     0
102
RTVSPropertyOp53
 70
     1
102
RTVSPropertyOp54
 70
     1
102
RTVSPropertyOp55
 70
     1
102
RTVSPropertyOp56
 70
     1
102
RTVSPropertyOp57
 70
     1
102
RTVSPropertyOp58
 70
     1
102
RTVSPropertyOp59
 70
     1
102
RTVSPropertyOp60
 70
     1
102
RTVSPropertyOp61
 70
     1
102
RTVSPropertyOp62
 70
     1
  0
XRECORD
  5
32AE
102
{ACAD_REACTORS
330
32AD
102
}
330
32AD
100
AcDbXrecord
280
     1
102
RTVSPost2010Prop28
280
     0
102
RTVSPost2010PropOp28
 70
     1
102
RTVSPost2010Prop29
280
     1
102
RTVSPost2010PropOp29
 70
     1
102
RTVSPost2010Prop30
280
     1
102
RTVSPost2010PropOp30
 70
     1
102
RTVSPost2010Prop31
280
     0
102
RTVSPost2010PropOp31
 70
     1
102
RTVSPost2010Prop32
280
     0
102
RTVSPost2010PropOp32
 70
     1
102
RTVSPost2010Prop33
280
     0
102
RTVSPost2010PropOp33
 70
     1
102
RTVSPost2010Prop34
280
     0
102
RTVSPost2010PropOp34
 70
     1
102
RTVSPost2010Prop35
280
     0
102
RTVSPost2010PropOp35
 70
     1
102
RTVSPost2010Prop36
280
     0
102
RTVSPost2010PropOp36
 70
     1
102
RTVSPost2010Prop37
 90
       50
102
RTVSPost2010PropOp37
 70
     1
102
RTVSPost2010Prop38
140
0.0
102
RTVSPost2010PropOp38
 70
     1
102
RTVSPost2010Prop39
140
1.0
102
RTVSPost2010PropOp39
 70
     1
102
RTVSPost2010Prop40
 90
        0
102
RTVSPost2010PropOp40
 70
     1
102
RTVSPost2010Prop41ColorIndex
 90
       18
102
RTVSPost2010Prop41ColorRGB
 90
        0
102
RTVSPost2010PropOp41
 70
     1
102
RTVSPost2010Prop42
 90
       50
102
RTVSPost2010PropOp42
 70
     1
102
RTVSPost2010Prop43
 90
        3
102
RTVSPost2010PropOp43
 70
     1
102
RTVSPost2010Prop44ColorIndex
 90
        5
102
RTVSPost2010Prop44ColorRGB
 90
      255
102
RTVSPost2010PropOp44
 70
     1
102
RTVSPost2010Prop45
280
     0
102
RTVSPost2010PropOp45
 70
     1
102
RTVSPost2010Prop46
 90
       50
102
RTVSPost2010PropOp46
 70
     1
102
RTVSPost2010Prop47
 90
       50
102
RTVSPost2010PropOp47
 70
     1
102
RTVSPost2010Prop48
 90
       50
102
RTVSPost2010PropOp48
 70
     1
102
RTVSPost2010Prop49
280
     0
102
RTVSPost2010PropOp49
 70
     1
102
RTVSPost2010Prop50
 90
       50
102
RTVSPost2010PropOp50
 70
     1
102
RTVSPost2010Prop51ColorIndex
 90
      256
102
RTVSPost2010Prop51ColorRGB
 90
-16777216
102
RTVSPost2010PropOp51
 70
     0
102
RTVSPost2010Prop52
140
1.0
102
RTVSPost2010PropOp52
 70
     0
102
RTVSPost2010Prop53
 90
        2
102
RTVSPost2010PropOp53
 70
     1
102
RTVSPost2010Prop54
  1
strokes_ogs.tif
102
RTVSPost2010PropOp54
 70
     1
102
RTVSPost2010Prop55
280
     0
102
RTVSPost2010PropOp55
 70
     1
102
RTVSPost2010Prop56
140
1.0
102
RTVSPost2010PropOp56
 70
     1
102
RTVSPost2010Prop57
140
1.0
102
RTVSPost2010PropOp57
 70
     1
102
RTVSPropertyOp0
 70
     1
102
RTVSPropertyOp1
 70
     1
102
RTVSPropertyOp2
 70
     1
102
RTVSPropertyOp3
 70
     1
102
RTVSPropertyOp4
 70
     1
102
RTVSPropertyOp5
 70
     1
102
RTVSPropertyOp6
 70
     1
102
RTVSPropertyOp7
 70
     1
102
RTVSPropertyOp8
 70
     1
102
RTVSPropertyOp9
 70
     1
102
RTVSPropertyOp10
 70
     1
102
RTVSPropertyOp11
 70
     1
102
RTVSPropertyOp12
 70
     1
102
RTVSPropertyOp13
 70
     1
102
RTVSPropertyOp14
 70
     1
102
RTVSPropertyOp15
 70
     1
102
RTVSPropertyOp16
 70
     1
102
RTVSPropertyOp17
 70
     1
102
RTVSPropertyOp18
 70
     1
102
RTVSPropertyOp19
 70
     1
102
RTVSPropertyOp20
 70
     1
102
RTVSPropertyOp21
 70
     1
102
RTVSPropertyOp22
 70
     1
102
RTVSPropertyOp23
 70
     1
102
RTVSPropertyOp24
 70
     1
102
RTVSPropertyOp25
 70
     1
102
RTVSPropertyOp26
 70
     1
102
RTVSPropertyOp27
 70
     1
102
RTVSPropertyOp28
 70
     1
102
RTVSPropertyOp29
 70
     1
102
RTVSPropertyOp30
 70
     1
102
RTVSPropertyOp31
 70
     1
102
RTVSPropertyOp32
 70
     1
102
RTVSPropertyOp33
 70
     1
102
RTVSPropertyOp34
 70
     1
102
RTVSPropertyOp35
 70
     1
102
RTVSPropertyOp36
 70
     1
102
RTVSPropertyOp37
 70
     1
102
RTVSPropertyOp38
 70
     1
102
RTVSPropertyOp39
 70
     1
102
RTVSPropertyOp40
 70
     1
102
RTVSPropertyOp41
 70
     1
102
RTVSPropertyOp42
 70
     1
102
RTVSPropertyOp43
 70
     1
102
RTVSPropertyOp44
 70
     1
102
RTVSPropertyOp45
 70
     1
102
RTVSPropertyOp46
 70
     1
102
RTVSPropertyOp47
 70
     1
102
RTVSPropertyOp48
 70
     1
102
RTVSPropertyOp49
 70
     1
102
RTVSPropertyOp50
 70
     1
102
RTVSPropertyOp51
 70
     0
102
RTVSPropertyOp52
 70
     0
102
RTVSPropertyOp53
 70
     1
102
RTVSPropertyOp54
 70
     1
102
RTVSPropertyOp55
 70
     1
102
RTVSPropertyOp56
 70
     1
102
RTVSPropertyOp57
 70
     1
102
RTVSPropertyOp58
 70
     1
102
RTVSPropertyOp59
 70
     1
102
RTVSPropertyOp60
 70
     1
102
RTVSPropertyOp61
 70
     1
102
RTVSPropertyOp62
 70
     1
  0
XRECORD
  5
32B6
102
{ACAD_REACTORS
330
32B5
102
}
330
32B5
100
AcDbXrecord
280
     1
102
RTVSPost2010Prop28
280
     0
102
RTVSPost2010PropOp28
 70
     1
102
RTVSPost2010Prop29
280
     1
102
RTVSPost2010PropOp29
 70
     1
102
RTVSPost2010Prop30
280
     1
102
RTVSPost2010PropOp30
 70
     1
102
RTVSPost2010Prop31
280
     0
102
RTVSPost2010PropOp31
 70
     1
102
RTVSPost2010Prop32
280
     0
102
RTVSPost2010PropOp32
 70
     1
102
RTVSPost2010Prop33
280
     0
102
RTVSPost2010PropOp33
 70
     1
102
RTVSPost2010Prop34
280
     0
102
RTVSPost2010PropOp34
 70
     1
102
RTVSPost2010Prop35
280
     0
102
RTVSPost2010PropOp35
 70
     1
102
RTVSPost2010Prop36
280
     0
102
RTVSPost2010PropOp36
 70
     1
102
RTVSPost2010Prop37
 90
       50
102
RTVSPost2010PropOp37
 70
     1
102
RTVSPost2010Prop38
140
0.0
102
RTVSPost2010PropOp38
 70
     1
102
RTVSPost2010Prop39
140
1.0
102
RTVSPost2010PropOp39
 70
     1
102
RTVSPost2010Prop40
 90
        0
102
RTVSPost2010PropOp40
 70
     1
102
RTVSPost2010Prop41ColorIndex
 90
       18
102
RTVSPost2010Prop41ColorRGB
 90
        0
102
RTVSPost2010PropOp41
 70
     1
102
RTVSPost2010Prop42
 90
       50
102
RTVSPost2010PropOp42
 70
     1
102
RTVSPost2010Prop43
 90
        3
102
RTVSPost2010PropOp43
 70
     1
102
RTVSPost2010Prop44ColorIndex
 90
        5
102
RTVSPost2010Prop44ColorRGB
 90
      255
102
RTVSPost2010PropOp44
 70
     1
102
RTVSPost2010Prop45
280
     0
102
RTVSPost2010PropOp45
 70
     1
102
RTVSPost2010Prop46
 90
       50
102
RTVSPost2010PropOp46
 70
     1
102
RTVSPost2010Prop47
 90
       50
102
RTVSPost2010PropOp47
 70
     1
102
RTVSPost2010Prop48
 90
       50
102
RTVSPost2010PropOp48
 70
     1
102
RTVSPost2010Prop49
280
     0
102
RTVSPost2010PropOp49
 70
     1
102
RTVSPost2010Prop50
 90
       50
102
RTVSPost2010PropOp50
 70
     1
102
RTVSPost2010Prop51ColorIndex
 90
      256
102
RTVSPost2010Prop51ColorRGB
 90
-16777216
102
RTVSPost2010PropOp51
 70
     0
102
RTVSPost2010Prop52
140
1.0
102
RTVSPost2010PropOp52
 70
     0
102
RTVSPost2010Prop53
 90
        2
102
RTVSPost2010PropOp53
 70
     1
102
RTVSPost2010Prop54
  1
strokes_ogs.tif
102
RTVSPost2010PropOp54
 70
     1
102
RTVSPost2010Prop55
280
     0
102
RTVSPost2010PropOp55
 70
     1
102
RTVSPost2010Prop56
140
1.0
102
RTVSPost2010PropOp56
 70
     1
102
RTVSPost2010Prop57
140
1.0
102
RTVSPost2010PropOp57
 70
     1
102
RTVSPropertyOp0
 70
     1
102
RTVSPropertyOp1
 70
     1
102
RTVSPropertyOp2
 70
     1
102
RTVSPropertyOp3
 70
     1
102
RTVSPropertyOp4
 70
     1
102
RTVSPropertyOp5
 70
     1
102
RTVSPropertyOp6
 70
     1
102
RTVSPropertyOp7
 70
     1
102
RTVSPropertyOp8
 70
     1
102
RTVSPropertyOp9
 70
     1
102
RTVSPropertyOp10
 70
     1
102
RTVSPropertyOp11
 70
     1
102
RTVSPropertyOp12
 70
     1
102
RTVSPropertyOp13
 70
     1
102
RTVSPropertyOp14
 70
     1
102
RTVSPropertyOp15
 70
     1
102
RTVSPropertyOp16
 70
     1
102
RTVSPropertyOp17
 70
     1
102
RTVSPropertyOp18
 70
     1
102
RTVSPropertyOp19
 70
     1
102
RTVSPropertyOp20
 70
     1
102
RTVSPropertyOp21
 70
     1
102
RTVSPropertyOp22
 70
     1
102
RTVSPropertyOp23
 70
     1
102
RTVSPropertyOp24
 70
     1
102
RTVSPropertyOp25
 70
     1
102
RTVSPropertyOp26
 70
     1
102
RTVSPropertyOp27
 70
     1
102
RTVSPropertyOp28
 70
     1
102
RTVSPropertyOp29
 70
     1
102
RTVSPropertyOp30
 70
     1
102
RTVSPropertyOp31
 70
     1
102
RTVSPropertyOp32
 70
     1
102
RTVSPropertyOp33
 70
     1
102
RTVSPropertyOp34
 70
     1
102
RTVSPropertyOp35
 70
     1
102
RTVSPropertyOp36
 70
     1
102
RTVSPropertyOp37
 70
     1
102
RTVSPropertyOp38
 70
     1
102
RTVSPropertyOp39
 70
     1
102
RTVSPropertyOp40
 70
     1
102
RTVSPropertyOp41
 70
     1
102
RTVSPropertyOp42
 70
     1
102
RTVSPropertyOp43
 70
     1
102
RTVSPropertyOp44
 70
     1
102
RTVSPropertyOp45
 70
     1
102
RTVSPropertyOp46
 70
     1
102
RTVSPropertyOp47
 70
     1
102
RTVSPropertyOp48
 70
     1
102
RTVSPropertyOp49
 70
     1
102
RTVSPropertyOp50
 70
     1
102
RTVSPropertyOp51
 70
     0
102
RTVSPropertyOp52
 70
     0
102
RTVSPropertyOp53
 70
     1
102
RTVSPropertyOp54
 70
     1
102
RTVSPropertyOp55
 70
     1
102
RTVSPropertyOp56
 70
     1
102
RTVSPropertyOp57
 70
     1
102
RTVSPropertyOp58
 70
     1
102
RTVSPropertyOp59
 70
     1
102
RTVSPropertyOp60
 70
     1
102
RTVSPropertyOp61
 70
     1
102
RTVSPropertyOp62
 70
     1
  0
XRECORD
  5
32A8
102
{ACAD_REACTORS
330
32A7
102
}
330
32A7
100
AcDbXrecord
280
     1
102
RTVSPost2010Prop28
280
     0
102
RTVSPost2010PropOp28
 70
     1
102
RTVSPost2010Prop29
280
     1
102
RTVSPost2010PropOp29
 70
     1
102
RTVSPost2010Prop30
280
     1
102
RTVSPost2010PropOp30
 70
     1
102
RTVSPost2010Prop31
280
     0
102
RTVSPost2010PropOp31
 70
     1
102
RTVSPost2010Prop32
280
     0
102
RTVSPost2010PropOp32
 70
     1
102
RTVSPost2010Prop33
280
     0
102
RTVSPost2010PropOp33
 70
     1
102
RTVSPost2010Prop34
280
     0
102
RTVSPost2010PropOp34
 70
     1
102
RTVSPost2010Prop35
280
     0
102
RTVSPost2010PropOp35
 70
     1
102
RTVSPost2010Prop36
280
     0
102
RTVSPost2010PropOp36
 70
     1
102
RTVSPost2010Prop37
 90
       50
102
RTVSPost2010PropOp37
 70
     1
102
RTVSPost2010Prop38
140
0.0
102
RTVSPost2010PropOp38
 70
     1
102
RTVSPost2010Prop39
140
1.0
102
RTVSPost2010PropOp39
 70
     1
102
RTVSPost2010Prop40
 90
        0
102
RTVSPost2010PropOp40
 70
     1
102
RTVSPost2010Prop41ColorIndex
 90
       18
102
RTVSPost2010Prop41ColorRGB
 90
        0
102
RTVSPost2010PropOp41
 70
     1
102
RTVSPost2010Prop42
 90
       50
102
RTVSPost2010PropOp42
 70
     1
102
RTVSPost2010Prop43
 90
        3
102
RTVSPost2010PropOp43
 70
     1
102
RTVSPost2010Prop44ColorIndex
 90
        5
102
RTVSPost2010Prop44ColorRGB
 90
      255
102
RTVSPost2010PropOp44
 70
     1
102
RTVSPost2010Prop45
280
     0
102
RTVSPost2010PropOp45
 70
     1
102
RTVSPost2010Prop46
 90
       50
102
RTVSPost2010PropOp46
 70
     1
102
RTVSPost2010Prop47
 90
       50
102
RTVSPost2010PropOp47
 70
     1
102
RTVSPost2010Prop48
 90
       50
102
RTVSPost2010PropOp48
 70
     1
102
RTVSPost2010Prop49
280
     0
102
RTVSPost2010PropOp49
 70
     1
102
RTVSPost2010Prop50
 90
       50
102
RTVSPost2010PropOp50
 70
     1
102
RTVSPost2010Prop51ColorIndex
 90
      256
102
RTVSPost2010Prop51ColorRGB
 90
-16777216
102
RTVSPost2010PropOp51
 70
     0
102
RTVSPost2010Prop52
140
1.0
102
RTVSPost2010PropOp52
 70
     0
102
RTVSPost2010Prop53
 90
        2
102
RTVSPost2010PropOp53
 70
     1
102
RTVSPost2010Prop54
  1
strokes_ogs.tif
102
RTVSPost2010PropOp54
 70
     1
102
RTVSPost2010Prop55
280
     0
102
RTVSPost2010PropOp55
 70
     1
102
RTVSPost2010Prop56
140
1.0
102
RTVSPost2010PropOp56
 70
     1
102
RTVSPost2010Prop57
140
1.0
102
RTVSPost2010PropOp57
 70
     1
102
RTVSPropertyOp0
 70
     1
102
RTVSPropertyOp1
 70
     1
102
RTVSPropertyOp2
 70
     1
102
RTVSPropertyOp3
 70
     1
102
RTVSPropertyOp4
 70
     1
102
RTVSPropertyOp5
 70
     1
102
RTVSPropertyOp6
 70
     1
102
RTVSPropertyOp7
 70
     1
102
RTVSPropertyOp8
 70
     1
102
RTVSPropertyOp9
 70
     1
102
RTVSPropertyOp10
 70
     1
102
RTVSPropertyOp11
 70
     1
102
RTVSPropertyOp12
 70
     1
102
RTVSPropertyOp13
 70
     1
102
RTVSPropertyOp14
 70
     1
102
RTVSPropertyOp15
 70
     1
102
RTVSPropertyOp16
 70
     1
102
RTVSPropertyOp17
 70
     1
102
RTVSPropertyOp18
 70
     1
102
RTVSPropertyOp19
 70
     1
102
RTVSPropertyOp20
 70
     1
102
RTVSPropertyOp21
 70
     1
102
RTVSPropertyOp22
 70
     1
102
RTVSPropertyOp23
 70
     1
102
RTVSPropertyOp24
 70
     1
102
RTVSPropertyOp25
 70
     1
102
RTVSPropertyOp26
 70
     1
102
RTVSPropertyOp27
 70
     1
102
RTVSPropertyOp28
 70
     1
102
RTVSPropertyOp29
 70
     1
102
RTVSPropertyOp30
 70
     1
102
RTVSPropertyOp31
 70
     1
102
RTVSPropertyOp32
 70
     1
102
RTVSPropertyOp33
 70
     1
102
RTVSPropertyOp34
 70
     1
102
RTVSPropertyOp35
 70
     1
102
RTVSPropertyOp36
 70
     1
102
RTVSPropertyOp37
 70
     1
102
RTVSPropertyOp38
 70
     1
102
RTVSPropertyOp39
 70
     1
102
RTVSPropertyOp40
 70
     1
102
RTVSPropertyOp41
 70
     1
102
RTVSPropertyOp42
 70
     1
102
RTVSPropertyOp43
 70
     1
102
RTVSPropertyOp44
 70
     1
102
RTVSPropertyOp45
 70
     1
102
RTVSPropertyOp46
 70
     1
102
RTVSPropertyOp47
 70
     1
102
RTVSPropertyOp48
 70
     1
102
RTVSPropertyOp49
 70
     1
102
RTVSPropertyOp50
 70
     1
102
RTVSPropertyOp51
 70
     0
102
RTVSPropertyOp52
 70
     0
102
RTVSPropertyOp53
 70
     1
102
RTVSPropertyOp54
 70
     1
102
RTVSPropertyOp55
 70
     1
102
RTVSPropertyOp56
 70
     1
102
RTVSPropertyOp57
 70
     1
102
RTVSPropertyOp58
 70
     1
102
RTVSPropertyOp59
 70
     1
102
RTVSPropertyOp60
 70
     1
102
RTVSPropertyOp61
 70
     1
102
RTVSPropertyOp62
 70
     1
  0
XRECORD
  5
32AC
102
{ACAD_REACTORS
330
32AB
102
}
330
32AB
100
AcDbXrecord
280
     1
102
RTVSPost2010Prop28
280
     0
102
RTVSPost2010PropOp28
 70
     1
102
RTVSPost2010Prop29
280
     1
102
RTVSPost2010PropOp29
 70
     1
102
RTVSPost2010Prop30
280
     1
102
RTVSPost2010PropOp30
 70
     1
102
RTVSPost2010Prop31
280
     0
102
RTVSPost2010PropOp31
 70
     1
102
RTVSPost2010Prop32
280
     0
102
RTVSPost2010PropOp32
 70
     1
102
RTVSPost2010Prop33
280
     0
102
RTVSPost2010PropOp33
 70
     1
102
RTVSPost2010Prop34
280
     0
102
RTVSPost2010PropOp34
 70
     1
102
RTVSPost2010Prop35
280
     0
102
RTVSPost2010PropOp35
 70
     1
102
RTVSPost2010Prop36
280
     0
102
RTVSPost2010PropOp36
 70
     1
102
RTVSPost2010Prop37
 90
       50
102
RTVSPost2010PropOp37
 70
     1
102
RTVSPost2010Prop38
140
0.0
102
RTVSPost2010PropOp38
 70
     1
102
RTVSPost2010Prop39
140
1.0
102
RTVSPost2010PropOp39
 70
     1
102
RTVSPost2010Prop40
 90
        0
102
RTVSPost2010PropOp40
 70
     1
102
RTVSPost2010Prop41ColorIndex
 90
       18
102
RTVSPost2010Prop41ColorRGB
 90
        0
102
RTVSPost2010PropOp41
 70
     1
102
RTVSPost2010Prop42
 90
       50
102
RTVSPost2010PropOp42
 70
     1
102
RTVSPost2010Prop43
 90
        3
102
RTVSPost2010PropOp43
 70
     1
102
RTVSPost2010Prop44ColorIndex
 90
        5
102
RTVSPost2010Prop44ColorRGB
 90
      255
102
RTVSPost2010PropOp44
 70
     1
102
RTVSPost2010Prop45
280
     0
102
RTVSPost2010PropOp45
 70
     1
102
RTVSPost2010Prop46
 90
       50
102
RTVSPost2010PropOp46
 70
     1
102
RTVSPost2010Prop47
 90
       50
102
RTVSPost2010PropOp47
 70
     1
102
RTVSPost2010Prop48
 90
       50
102
RTVSPost2010PropOp48
 70
     1
102
RTVSPost2010Prop49
280
     0
102
RTVSPost2010PropOp49
 70
     1
102
RTVSPost2010Prop50
 90
       50
102
RTVSPost2010PropOp50
 70
     1
102
RTVSPost2010Prop51ColorIndex
 90
      256
102
RTVSPost2010Prop51ColorRGB
 90
-16777216
102
RTVSPost2010PropOp51
 70
     0
102
RTVSPost2010Prop52
140
1.0
102
RTVSPost2010PropOp52
 70
     0
102
RTVSPost2010Prop53
 90
        2
102
RTVSPost2010PropOp53
 70
     1
102
RTVSPost2010Prop54
  1
strokes_ogs.tif
102
RTVSPost2010PropOp54
 70
     1
102
RTVSPost2010Prop55
280
     0
102
RTVSPost2010PropOp55
 70
     1
102
RTVSPost2010Prop56
140
1.0
102
RTVSPost2010PropOp56
 70
     1
102
RTVSPost2010Prop57
140
1.0
102
RTVSPost2010PropOp57
 70
     1
102
RTVSPropertyOp0
 70
     1
102
RTVSPropertyOp1
 70
     1
102
RTVSPropertyOp2
 70
     1
102
RTVSPropertyOp3
 70
     1
102
RTVSPropertyOp4
 70
     1
102
RTVSPropertyOp5
 70
     1
102
RTVSPropertyOp6
 70
     1
102
RTVSPropertyOp7
 70
     1
102
RTVSPropertyOp8
 70
     1
102
RTVSPropertyOp9
 70
     1
102
RTVSPropertyOp10
 70
     1
102
RTVSPropertyOp11
 70
     1
102
RTVSPropertyOp12
 70
     1
102
RTVSPropertyOp13
 70
     1
102
RTVSPropertyOp14
 70
     1
102
RTVSPropertyOp15
 70
     1
102
RTVSPropertyOp16
 70
     1
102
RTVSPropertyOp17
 70
     1
102
RTVSPropertyOp18
 70
     1
102
RTVSPropertyOp19
 70
     1
102
RTVSPropertyOp20
 70
     1
102
RTVSPropertyOp21
 70
     1
102
RTVSPropertyOp22
 70
     1
102
RTVSPropertyOp23
 70
     1
102
RTVSPropertyOp24
 70
     1
102
RTVSPropertyOp25
 70
     1
102
RTVSPropertyOp26
 70
     1
102
RTVSPropertyOp27
 70
     1
102
RTVSPropertyOp28
 70
     1
102
RTVSPropertyOp29
 70
     1
102
RTVSPropertyOp30
 70
     1
102
RTVSPropertyOp31
 70
     1
102
RTVSPropertyOp32
 70
     1
102
RTVSPropertyOp33
 70
     1
102
RTVSPropertyOp34
 70
     1
102
RTVSPropertyOp35
 70
     1
102
RTVSPropertyOp36
 70
     1
102
RTVSPropertyOp37
 70
     1
102
RTVSPropertyOp38
 70
     1
102
RTVSPropertyOp39
 70
     1
102
RTVSPropertyOp40
 70
     1
102
RTVSPropertyOp41
 70
     1
102
RTVSPropertyOp42
 70
     1
102
RTVSPropertyOp43
 70
     1
102
RTVSPropertyOp44
 70
     1
102
RTVSPropertyOp45
 70
     1
102
RTVSPropertyOp46
 70
     1
102
RTVSPropertyOp47
 70
     1
102
RTVSPropertyOp48
 70
     1
102
RTVSPropertyOp49
 70
     1
102
RTVSPropertyOp50
 70
     1
102
RTVSPropertyOp51
 70
     0
102
RTVSPropertyOp52
 70
     0
102
RTVSPropertyOp53
 70
     1
102
RTVSPropertyOp54
 70
     1
102
RTVSPropertyOp55
 70
     1
102
RTVSPropertyOp56
 70
     1
102
RTVSPropertyOp57
 70
     1
102
RTVSPropertyOp58
 70
     1
102
RTVSPropertyOp59
 70
     1
102
RTVSPropertyOp60
 70
     1
102
RTVSPropertyOp61
 70
     1
102
RTVSPropertyOp62
 70
     1
  0
XRECORD
  5
32CA
102
{ACAD_REACTORS
330
32C9
102
}
330
32C9
100
AcDbXrecord
280
     1
102
RTVSPost2010Prop28
280
     0
102
RTVSPost2010PropOp28
 70
     1
102
RTVSPost2010Prop29
280
     1
102
RTVSPost2010PropOp29
 70
     1
102
RTVSPost2010Prop30
280
     1
102
RTVSPost2010PropOp30
 70
     1
102
RTVSPost2010Prop31
280
     0
102
RTVSPost2010PropOp31
 70
     1
102
RTVSPost2010Prop32
280
     0
102
RTVSPost2010PropOp32
 70
     1
102
RTVSPost2010Prop33
280
     0
102
RTVSPost2010PropOp33
 70
     1
102
RTVSPost2010Prop34
280
     0
102
RTVSPost2010PropOp34
 70
     1
102
RTVSPost2010Prop35
280
     0
102
RTVSPost2010PropOp35
 70
     1
102
RTVSPost2010Prop36
280
     0
102
RTVSPost2010PropOp36
 70
     1
102
RTVSPost2010Prop37
 90
       50
102
RTVSPost2010PropOp37
 70
     0
102
RTVSPost2010Prop38
140
0.0
102
RTVSPost2010PropOp38
 70
     0
102
RTVSPost2010Prop39
140
1.0
102
RTVSPost2010PropOp39
 70
     0
102
RTVSPost2010Prop40
 90
        0
102
RTVSPost2010PropOp40
 70
     0
102
RTVSPost2010Prop41ColorIndex
 90
       18
102
RTVSPost2010Prop41ColorRGB
 90
        0
102
RTVSPost2010PropOp41
 70
     0
102
RTVSPost2010Prop42
 90
       50
102
RTVSPost2010PropOp42
 70
     0
102
RTVSPost2010Prop43
 90
        3
102
RTVSPost2010PropOp43
 70
     0
102
RTVSPost2010Prop44ColorIndex
 90
        5
102
RTVSPost2010Prop44ColorRGB
 90
      255
102
RTVSPost2010PropOp44
 70
     0
102
RTVSPost2010Prop45
280
     0
102
RTVSPost2010PropOp45
 70
     1
102
RTVSPost2010Prop46
 90
       50
102
RTVSPost2010PropOp46
 70
     0
102
RTVSPost2010Prop47
 90
       50
102
RTVSPost2010PropOp47
 70
     0
102
RTVSPost2010Prop48
 90
       50
102
RTVSPost2010PropOp48
 70
     0
102
RTVSPost2010Prop49
280
     0
102
RTVSPost2010PropOp49
 70
     1
102
RTVSPost2010Prop50
 90
       50
102
RTVSPost2010PropOp50
 70
     0
102
RTVSPost2010Prop51ColorIndex
 90
      256
102
RTVSPost2010Prop51ColorRGB
 90
-16777216
102
RTVSPost2010PropOp51
 70
     0
102
RTVSPost2010Prop52
140
1.0
102
RTVSPost2010PropOp52
 70
     0
102
RTVSPost2010Prop53
 90
        2
102
RTVSPost2010PropOp53
 70
     0
102
RTVSPost2010Prop54
  1
strokes_ogs.tif
102
RTVSPost2010PropOp54
 70
     0
102
RTVSPost2010Prop55
280
     0
102
RTVSPost2010PropOp55
 70
     1
102
RTVSPost2010Prop56
140
1.0
102
RTVSPost2010PropOp56
 70
     0
102
RTVSPost2010Prop57
140
1.0
102
RTVSPost2010PropOp57
 70
     0
102
RTVSPropertyOp0
 70
     0
102
RTVSPropertyOp1
 70
     0
102
RTVSPropertyOp2
 70
     0
102
RTVSPropertyOp3
 70
     0
102
RTVSPropertyOp4
 70
     0
102
RTVSPropertyOp5
 70
     0
102
RTVSPropertyOp6
 70
     0
102
RTVSPropertyOp7
 70
     0
102
RTVSPropertyOp8
 70
     0
102
RTVSPropertyOp9
 70
     0
102
RTVSPropertyOp10
 70
     0
102
RTVSPropertyOp11
 70
     0
102
RTVSPropertyOp12
 70
     0
102
RTVSPropertyOp13
 70
     0
102
RTVSPropertyOp14
 70
     2
102
RTVSPropertyOp15
 70
     0
102
RTVSPropertyOp16
 70
     0
102
RTVSPropertyOp17
 70
     0
102
RTVSPropertyOp18
 70
     0
102
RTVSPropertyOp19
 70
     0
102
RTVSPropertyOp20
 70
     0
102
RTVSPropertyOp21
 70
     0
102
RTVSPropertyOp22
 70
     0
102
RTVSPropertyOp23
 70
     0
102
RTVSPropertyOp24
 70
     0
102
RTVSPropertyOp25
 70
     0
102
RTVSPropertyOp26
 70
     0
102
RTVSPropertyOp27
 70
     0
102
RTVSPropertyOp28
 70
     1
102
RTVSPropertyOp29
 70
     1
102
RTVSPropertyOp30
 70
     1
102
RTVSPropertyOp31
 70
     1
102
RTVSPropertyOp32
 70
     1
102
RTVSPropertyOp33
 70
     1
102
RTVSPropertyOp34
 70
     1
102
RTVSPropertyOp35
 70
     1
102
RTVSPropertyOp36
 70
     1
102
RTVSPropertyOp37
 70
     0
102
RTVSPropertyOp38
 70
     0
102
RTVSPropertyOp39
 70
     0
102
RTVSPropertyOp40
 70
     0
102
RTVSPropertyOp41
 70
     0
102
RTVSPropertyOp42
 70
     0
102
RTVSPropertyOp43
 70
     0
102
RTVSPropertyOp44
 70
     0
102
RTVSPropertyOp45
 70
     1
102
RTVSPropertyOp46
 70
     0
102
RTVSPropertyOp47
 70
     0
102
RTVSPropertyOp48
 70
     0
102
RTVSPropertyOp49
 70
     1
102
RTVSPropertyOp50
 70
     0
102
RTVSPropertyOp51
 70
     0
102
RTVSPropertyOp52
 70
     0
102
RTVSPropertyOp53
 70
     0
102
RTVSPropertyOp54
 70
     0
102
RTVSPropertyOp55
 70
     1
102
RTVSPropertyOp56
 70
     0
102
RTVSPropertyOp57
 70
     0
102
RTVSPropertyOp58
 70
     0
102
RTVSPropertyOp59
 70
     0
102
RTVSPropertyOp60
 70
     0
102
RTVSPropertyOp61
 70
     0
102
RTVSPropertyOp62
 70
     0
  0
XRECORD
  5
32B4
102
{ACAD_REACTORS
330
32B3
102
}
330
32B3
100
AcDbXrecord
280
     1
102
RTVSPost2010Prop28
280
     0
102
RTVSPost2010PropOp28
 70
     1
102
RTVSPost2010Prop29
280
     1
102
RTVSPost2010PropOp29
 70
     1
102
RTVSPost2010Prop30
280
     1
102
RTVSPost2010PropOp30
 70
     1
102
RTVSPost2010Prop31
280
     0
102
RTVSPost2010PropOp31
 70
     1
102
RTVSPost2010Prop32
280
     0
102
RTVSPost2010PropOp32
 70
     1
102
RTVSPost2010Prop33
280
     0
102
RTVSPost2010PropOp33
 70
     1
102
RTVSPost2010Prop34
280
     0
102
RTVSPost2010PropOp34
 70
     1
102
RTVSPost2010Prop35
280
     0
102
RTVSPost2010PropOp35
 70
     1
102
RTVSPost2010Prop36
280
     0
102
RTVSPost2010PropOp36
 70
     1
102
RTVSPost2010Prop37
 90
       50
102
RTVSPost2010PropOp37
 70
     1
102
RTVSPost2010Prop38
140
0.0
102
RTVSPost2010PropOp38
 70
     1
102
RTVSPost2010Prop39
140
1.0
102
RTVSPost2010PropOp39
 70
     1
102
RTVSPost2010Prop40
 90
        0
102
RTVSPost2010PropOp40
 70
     1
102
RTVSPost2010Prop41ColorIndex
 90
       18
102
RTVSPost2010Prop41ColorRGB
 90
        0
102
RTVSPost2010PropOp41
 70
     1
102
RTVSPost2010Prop42
 90
       50
102
RTVSPost2010PropOp42
 70
     1
102
RTVSPost2010Prop43
 90
        3
102
RTVSPost2010PropOp43
 70
     1
102
RTVSPost2010Prop44ColorIndex
 90
        5
102
RTVSPost2010Prop44ColorRGB
 90
      255
102
RTVSPost2010PropOp44
 70
     1
102
RTVSPost2010Prop45
280
     0
102
RTVSPost2010PropOp45
 70
     1
102
RTVSPost2010Prop46
 90
       50
102
RTVSPost2010PropOp46
 70
     1
102
RTVSPost2010Prop47
 90
       50
102
RTVSPost2010PropOp47
 70
     1
102
RTVSPost2010Prop48
 90
       50
102
RTVSPost2010PropOp48
 70
     1
102
RTVSPost2010Prop49
280
     0
102
RTVSPost2010PropOp49
 70
     1
102
RTVSPost2010Prop50
 90
       50
102
RTVSPost2010PropOp50
 70
     1
102
RTVSPost2010Prop51ColorIndex
 90
      256
102
RTVSPost2010Prop51ColorRGB
 90
-16777216
102
RTVSPost2010PropOp51
 70
     0
102
RTVSPost2010Prop52
140
1.0
102
RTVSPost2010PropOp52
 70
     0
102
RTVSPost2010Prop53
 90
        2
102
RTVSPost2010PropOp53
 70
     1
102
RTVSPost2010Prop54
  1
strokes_ogs.tif
102
RTVSPost2010PropOp54
 70
     1
102
RTVSPost2010Prop55
280
     0
102
RTVSPost2010PropOp55
 70
     1
102
RTVSPost2010Prop56
140
1.0
102
RTVSPost2010PropOp56
 70
     1
102
RTVSPost2010Prop57
140
1.0
102
RTVSPost2010PropOp57
 70
     1
102
RTVSPropertyOp0
 70
     1
102
RTVSPropertyOp1
 70
     1
102
RTVSPropertyOp2
 70
     1
102
RTVSPropertyOp3
 70
     1
102
RTVSPropertyOp4
 70
     1
102
RTVSPropertyOp5
 70
     1
102
RTVSPropertyOp6
 70
     1
102
RTVSPropertyOp7
 70
     1
102
RTVSPropertyOp8
 70
     1
102
RTVSPropertyOp9
 70
     1
102
RTVSPropertyOp10
 70
     1
102
RTVSPropertyOp11
 70
     1
102
RTVSPropertyOp12
 70
     1
102
RTVSPropertyOp13
 70
     1
102
RTVSPropertyOp14
 70
     1
102
RTVSPropertyOp15
 70
     1
102
RTVSPropertyOp16
 70
     1
102
RTVSPropertyOp17
 70
     1
102
RTVSPropertyOp18
 70
     1
102
RTVSPropertyOp19
 70
     1
102
RTVSPropertyOp20
 70
     1
102
RTVSPropertyOp21
 70
     1
102
RTVSPropertyOp22
 70
     1
102
RTVSPropertyOp23
 70
     1
102
RTVSPropertyOp24
 70
     1
102
RTVSPropertyOp25
 70
     1
102
RTVSPropertyOp26
 70
     1
102
RTVSPropertyOp27
 70
     1
102
RTVSPropertyOp28
 70
     1
102
RTVSPropertyOp29
 70
     1
102
RTVSPropertyOp30
 70
     1
102
RTVSPropertyOp31
 70
     1
102
RTVSPropertyOp32
 70
     1
102
RTVSPropertyOp33
 70
     1
102
RTVSPropertyOp34
 70
     1
102
RTVSPropertyOp35
 70
     1
102
RTVSPropertyOp36
 70
     1
102
RTVSPropertyOp37
 70
     1
102
RTVSPropertyOp38
 70
     1
102
RTVSPropertyOp39
 70
     1
102
RTVSPropertyOp40
 70
     1
102
RTVSPropertyOp41
 70
     1
102
RTVSPropertyOp42
 70
     1
102
RTVSPropertyOp43
 70
     1
102
RTVSPropertyOp44
 70
     1
102
RTVSPropertyOp45
 70
     1
102
RTVSPropertyOp46
 70
     1
102
RTVSPropertyOp47
 70
     1
102
RTVSPropertyOp48
 70
     1
102
RTVSPropertyOp49
 70
     1
102
RTVSPropertyOp50
 70
     1
102
RTVSPropertyOp51
 70
     0
102
RTVSPropertyOp52
 70
     0
102
RTVSPropertyOp53
 70
     1
102
RTVSPropertyOp54
 70
     1
102
RTVSPropertyOp55
 70
     1
102
RTVSPropertyOp56
 70
     1
102
RTVSPropertyOp57
 70
     1
102
RTVSPropertyOp58
 70
     1
102
RTVSPropertyOp59
 70
     1
102
RTVSPropertyOp60
 70
     1
102
RTVSPropertyOp61
 70
     1
102
RTVSPropertyOp62
 70
     1
  0
XRECORD
  5
3298
102
{ACAD_REACTORS
330
3297
102
}
330
3297
100
AcDbXrecord
280
     1
102
RTVSPost2010Prop28
280
     0
102
RTVSPost2010PropOp28
 70
     1
102
RTVSPost2010Prop29
280
     1
102
RTVSPost2010PropOp29
 70
     1
102
RTVSPost2010Prop30
280
     1
102
RTVSPost2010PropOp30
 70
     1
102
RTVSPost2010Prop31
280
     0
102
RTVSPost2010PropOp31
 70
     1
102
RTVSPost2010Prop32
280
     0
102
RTVSPost2010PropOp32
 70
     1
102
RTVSPost2010Prop33
280
     0
102
RTVSPost2010PropOp33
 70
     1
102
RTVSPost2010Prop34
280
     0
102
RTVSPost2010PropOp34
 70
     1
102
RTVSPost2010Prop35
280
     0
102
RTVSPost2010PropOp35
 70
     1
102
RTVSPost2010Prop36
280
     0
102
RTVSPost2010PropOp36
 70
     1
102
RTVSPost2010Prop37
 90
       50
102
RTVSPost2010PropOp37
 70
     1
102
RTVSPost2010Prop38
140
0.0
102
RTVSPost2010PropOp38
 70
     1
102
RTVSPost2010Prop39
140
1.0
102
RTVSPost2010PropOp39
 70
     1
102
RTVSPost2010Prop40
 90
        0
102
RTVSPost2010PropOp40
 70
     1
102
RTVSPost2010Prop41ColorIndex
 90
       18
102
RTVSPost2010Prop41ColorRGB
 90
        0
102
RTVSPost2010PropOp41
 70
     1
102
RTVSPost2010Prop42
 90
       50
102
RTVSPost2010PropOp42
 70
     1
102
RTVSPost2010Prop43
 90
        3
102
RTVSPost2010PropOp43
 70
     1
102
RTVSPost2010Prop44ColorIndex
 90
        5
102
RTVSPost2010Prop44ColorRGB
 90
      255
102
RTVSPost2010PropOp44
 70
     1
102
RTVSPost2010Prop45
280
     0
102
RTVSPost2010PropOp45
 70
     1
102
RTVSPost2010Prop46
 90
       50
102
RTVSPost2010PropOp46
 70
     1
102
RTVSPost2010Prop47
 90
       50
102
RTVSPost2010PropOp47
 70
     1
102
RTVSPost2010Prop48
 90
       50
102
RTVSPost2010PropOp48
 70
     1
102
RTVSPost2010Prop49
280
     0
102
RTVSPost2010PropOp49
 70
     1
102
RTVSPost2010Prop50
 90
       50
102
RTVSPost2010PropOp50
 70
     1
102
RTVSPost2010Prop51ColorIndex
 90
      256
102
RTVSPost2010Prop51ColorRGB
 90
-16777216
102
RTVSPost2010PropOp51
 70
     0
102
RTVSPost2010Prop52
140
1.0
102
RTVSPost2010PropOp52
 70
     0
102
RTVSPost2010Prop53
 90
        2
102
RTVSPost2010PropOp53
 70
     1
102
RTVSPost2010Prop54
  1
strokes_ogs.tif
102
RTVSPost2010PropOp54
 70
     1
102
RTVSPost2010Prop55
280
     0
102
RTVSPost2010PropOp55
 70
     1
102
RTVSPost2010Prop56
140
1.0
102
RTVSPost2010PropOp56
 70
     1
102
RTVSPost2010Prop57
140
1.0
102
RTVSPost2010PropOp57
 70
     1
102
RTVSPropertyOp0
 70
     1
102
RTVSPropertyOp1
 70
     1
102
RTVSPropertyOp2
 70
     1
102
RTVSPropertyOp3
 70
     1
102
RTVSPropertyOp4
 70
     1
102
RTVSPropertyOp5
 70
     1
102
RTVSPropertyOp6
 70
     1
102
RTVSPropertyOp7
 70
     1
102
RTVSPropertyOp8
 70
     1
102
RTVSPropertyOp9
 70
     1
102
RTVSPropertyOp10
 70
     1
102
RTVSPropertyOp11
 70
     1
102
RTVSPropertyOp12
 70
     1
102
RTVSPropertyOp13
 70
     1
102
RTVSPropertyOp14
 70
     1
102
RTVSPropertyOp15
 70
     1
102
RTVSPropertyOp16
 70
     1
102
RTVSPropertyOp17
 70
     1
102
RTVSPropertyOp18
 70
     1
102
RTVSPropertyOp19
 70
     1
102
RTVSPropertyOp20
 70
     1
102
RTVSPropertyOp21
 70
     1
102
RTVSPropertyOp22
 70
     1
102
RTVSPropertyOp23
 70
     1
102
RTVSPropertyOp24
 70
     1
102
RTVSPropertyOp25
 70
     1
102
RTVSPropertyOp26
 70
     1
102
RTVSPropertyOp27
 70
     1
102
RTVSPropertyOp28
 70
     1
102
RTVSPropertyOp29
 70
     1
102
RTVSPropertyOp30
 70
     1
102
RTVSPropertyOp31
 70
     1
102
RTVSPropertyOp32
 70
     1
102
RTVSPropertyOp33
 70
     1
102
RTVSPropertyOp34
 70
     1
102
RTVSPropertyOp35
 70
     1
102
RTVSPropertyOp36
 70
     1
102
RTVSPropertyOp37
 70
     1
102
RTVSPropertyOp38
 70
     1
102
RTVSPropertyOp39
 70
     1
102
RTVSPropertyOp40
 70
     1
102
RTVSPropertyOp41
 70
     1
102
RTVSPropertyOp42
 70
     1
102
RTVSPropertyOp43
 70
     1
102
RTVSPropertyOp44
 70
     1
102
RTVSPropertyOp45
 70
     1
102
RTVSPropertyOp46
 70
     1
102
RTVSPropertyOp47
 70
     1
102
RTVSPropertyOp48
 70
     1
102
RTVSPropertyOp49
 70
     1
102
RTVSPropertyOp50
 70
     1
102
RTVSPropertyOp51
 70
     0
102
RTVSPropertyOp52
 70
     0
102
RTVSPropertyOp53
 70
     1
102
RTVSPropertyOp54
 70
     1
102
RTVSPropertyOp55
 70
     1
102
RTVSPropertyOp56
 70
     1
102
RTVSPropertyOp57
 70
     1
102
RTVSPropertyOp58
 70
     1
102
RTVSPropertyOp59
 70
     1
102
RTVSPropertyOp60
 70
     1
102
RTVSPropertyOp61
 70
     1
102
RTVSPropertyOp62
 70
     1
  0
XRECORD
  5
329A
102
{ACAD_REACTORS
330
3299
102
}
330
3299
100
AcDbXrecord
280
     1
102
RTVSPost2010Prop28
280
     0
102
RTVSPost2010PropOp28
 70
     1
102
RTVSPost2010Prop29
280
     1
102
RTVSPost2010PropOp29
 70
     1
102
RTVSPost2010Prop30
280
     1
102
RTVSPost2010PropOp30
 70
     1
102
RTVSPost2010Prop31
280
     0
102
RTVSPost2010PropOp31
 70
     1
102
RTVSPost2010Prop32
280
     0
102
RTVSPost2010PropOp32
 70
     1
102
RTVSPost2010Prop33
280
     0
102
RTVSPost2010PropOp33
 70
     1
102
RTVSPost2010Prop34
280
     0
102
RTVSPost2010PropOp34
 70
     1
102
RTVSPost2010Prop35
280
     0
102
RTVSPost2010PropOp35
 70
     1
102
RTVSPost2010Prop36
280
     0
102
RTVSPost2010PropOp36
 70
     1
102
RTVSPost2010Prop37
 90
       50
102
RTVSPost2010PropOp37
 70
     1
102
RTVSPost2010Prop38
140
0.0
102
RTVSPost2010PropOp38
 70
     1
102
RTVSPost2010Prop39
140
1.0
102
RTVSPost2010PropOp39
 70
     1
102
RTVSPost2010Prop40
 90
        0
102
RTVSPost2010PropOp40
 70
     1
102
RTVSPost2010Prop41ColorIndex
 90
       18
102
RTVSPost2010Prop41ColorRGB
 90
        0
102
RTVSPost2010PropOp41
 70
     1
102
RTVSPost2010Prop42
 90
       50
102
RTVSPost2010PropOp42
 70
     1
102
RTVSPost2010Prop43
 90
        3
102
RTVSPost2010PropOp43
 70
     1
102
RTVSPost2010Prop44ColorIndex
 90
        5
102
RTVSPost2010Prop44ColorRGB
 90
      255
102
RTVSPost2010PropOp44
 70
     1
102
RTVSPost2010Prop45
280
     0
102
RTVSPost2010PropOp45
 70
     1
102
RTVSPost2010Prop46
 90
       50
102
RTVSPost2010PropOp46
 70
     1
102
RTVSPost2010Prop47
 90
       50
102
RTVSPost2010PropOp47
 70
     1
102
RTVSPost2010Prop48
 90
       50
102
RTVSPost2010PropOp48
 70
     1
102
RTVSPost2010Prop49
280
     0
102
RTVSPost2010PropOp49
 70
     1
102
RTVSPost2010Prop50
 90
       50
102
RTVSPost2010PropOp50
 70
     1
102
RTVSPost2010Prop51ColorIndex
 90
      256
102
RTVSPost2010Prop51ColorRGB
 90
-16777216
102
RTVSPost2010PropOp51
 70
     0
102
RTVSPost2010Prop52
140
1.0
102
RTVSPost2010PropOp52
 70
     0
102
RTVSPost2010Prop53
 90
        2
102
RTVSPost2010PropOp53
 70
     1
102
RTVSPost2010Prop54
  1
strokes_ogs.tif
102
RTVSPost2010PropOp54
 70
     1
102
RTVSPost2010Prop55
280
     0
102
RTVSPost2010PropOp55
 70
     1
102
RTVSPost2010Prop56
140
1.0
102
RTVSPost2010PropOp56
 70
     1
102
RTVSPost2010Prop57
140
1.0
102
RTVSPost2010PropOp57
 70
     1
102
RTVSPropertyOp0
 70
     1
102
RTVSPropertyOp1
 70
     1
102
RTVSPropertyOp2
 70
     1
102
RTVSPropertyOp3
 70
     1
102
RTVSPropertyOp4
 70
     1
102
RTVSPropertyOp5
 70
     1
102
RTVSPropertyOp6
 70
     1
102
RTVSPropertyOp7
 70
     1
102
RTVSPropertyOp8
 70
     1
102
RTVSPropertyOp9
 70
     1
102
RTVSPropertyOp10
 70
     1
102
RTVSPropertyOp11
 70
     1
102
RTVSPropertyOp12
 70
     1
102
RTVSPropertyOp13
 70
     1
102
RTVSPropertyOp14
 70
     1
102
RTVSPropertyOp15
 70
     1
102
RTVSPropertyOp16
 70
     1
102
RTVSPropertyOp17
 70
     1
102
RTVSPropertyOp18
 70
     1
102
RTVSPropertyOp19
 70
     1
102
RTVSPropertyOp20
 70
     1
102
RTVSPropertyOp21
 70
     1
102
RTVSPropertyOp22
 70
     1
102
RTVSPropertyOp23
 70
     1
102
RTVSPropertyOp24
 70
     1
102
RTVSPropertyOp25
 70
     1
102
RTVSPropertyOp26
 70
     1
102
RTVSPropertyOp27
 70
     1
102
RTVSPropertyOp28
 70
     1
102
RTVSPropertyOp29
 70
     1
102
RTVSPropertyOp30
 70
     1
102
RTVSPropertyOp31
 70
     1
102
RTVSPropertyOp32
 70
     1
102
RTVSPropertyOp33
 70
     1
102
RTVSPropertyOp34
 70
     1
102
RTVSPropertyOp35
 70
     1
102
RTVSPropertyOp36
 70
     1
102
RTVSPropertyOp37
 70
     1
102
RTVSPropertyOp38
 70
     1
102
RTVSPropertyOp39
 70
     1
102
RTVSPropertyOp40
 70
     1
102
RTVSPropertyOp41
 70
     1
102
RTVSPropertyOp42
 70
     1
102
RTVSPropertyOp43
 70
     1
102
RTVSPropertyOp44
 70
     1
102
RTVSPropertyOp45
 70
     1
102
RTVSPropertyOp46
 70
     1
102
RTVSPropertyOp47
 70
     1
102
RTVSPropertyOp48
 70
     1
102
RTVSPropertyOp49
 70
     1
102
RTVSPropertyOp50
 70
     1
102
RTVSPropertyOp51
 70
     0
102
RTVSPropertyOp52
 70
     0
102
RTVSPropertyOp53
 70
     1
102
RTVSPropertyOp54
 70
     1
102
RTVSPropertyOp55
 70
     1
102
RTVSPropertyOp56
 70
     1
102
RTVSPropertyOp57
 70
     1
102
RTVSPropertyOp58
 70
     1
102
RTVSPropertyOp59
 70
     1
102
RTVSPropertyOp60
 70
     1
102
RTVSPropertyOp61
 70
     1
102
RTVSPropertyOp62
 70
     1
  0
XRECORD
  5
329C
102
{ACAD_REACTORS
330
329B
102
}
330
329B
100
AcDbXrecord
280
     1
102
RTVSPost2010Prop28
280
     0
102
RTVSPost2010PropOp28
 70
     1
102
RTVSPost2010Prop29
280
     1
102
RTVSPost2010PropOp29
 70
     1
102
RTVSPost2010Prop30
280
     1
102
RTVSPost2010PropOp30
 70
     1
102
RTVSPost2010Prop31
280
     0
102
RTVSPost2010PropOp31
 70
     1
102
RTVSPost2010Prop32
280
     0
102
RTVSPost2010PropOp32
 70
     1
102
RTVSPost2010Prop33
280
     0
102
RTVSPost2010PropOp33
 70
     1
102
RTVSPost2010Prop34
280
     0
102
RTVSPost2010PropOp34
 70
     1
102
RTVSPost2010Prop35
280
     0
102
RTVSPost2010PropOp35
 70
     1
102
RTVSPost2010Prop36
280
     0
102
RTVSPost2010PropOp36
 70
     1
102
RTVSPost2010Prop37
 90
       50
102
RTVSPost2010PropOp37
 70
     1
102
RTVSPost2010Prop38
140
0.0
102
RTVSPost2010PropOp38
 70
     1
102
RTVSPost2010Prop39
140
1.0
102
RTVSPost2010PropOp39
 70
     1
102
RTVSPost2010Prop40
 90
        0
102
RTVSPost2010PropOp40
 70
     1
102
RTVSPost2010Prop41ColorIndex
 90
       18
102
RTVSPost2010Prop41ColorRGB
 90
        0
102
RTVSPost2010PropOp41
 70
     1
102
RTVSPost2010Prop42
 90
       50
102
RTVSPost2010PropOp42
 70
     1
102
RTVSPost2010Prop43
 90
        3
102
RTVSPost2010PropOp43
 70
     1
102
RTVSPost2010Prop44ColorIndex
 90
        5
102
RTVSPost2010Prop44ColorRGB
 90
      255
102
RTVSPost2010PropOp44
 70
     1
102
RTVSPost2010Prop45
280
     0
102
RTVSPost2010PropOp45
 70
     1
102
RTVSPost2010Prop46
 90
       50
102
RTVSPost2010PropOp46
 70
     1
102
RTVSPost2010Prop47
 90
       50
102
RTVSPost2010PropOp47
 70
     1
102
RTVSPost2010Prop48
 90
       50
102
RTVSPost2010PropOp48
 70
     1
102
RTVSPost2010Prop49
280
     0
102
RTVSPost2010PropOp49
 70
     1
102
RTVSPost2010Prop50
 90
       50
102
RTVSPost2010PropOp50
 70
     1
102
RTVSPost2010Prop51ColorIndex
 90
      256
102
RTVSPost2010Prop51ColorRGB
 90
-16777216
102
RTVSPost2010PropOp51
 70
     0
102
RTVSPost2010Prop52
140
1.0
102
RTVSPost2010PropOp52
 70
     0
102
RTVSPost2010Prop53
 90
        2
102
RTVSPost2010PropOp53
 70
     1
102
RTVSPost2010Prop54
  1
strokes_ogs.tif
102
RTVSPost2010PropOp54
 70
     1
102
RTVSPost2010Prop55
280
     0
102
RTVSPost2010PropOp55
 70
     1
102
RTVSPost2010Prop56
140
1.0
102
RTVSPost2010PropOp56
 70
     1
102
RTVSPost2010Prop57
140
1.0
102
RTVSPost2010PropOp57
 70
     1
102
RTVSPropertyOp0
 70
     1
102
RTVSPropertyOp1
 70
     1
102
RTVSPropertyOp2
 70
     1
102
RTVSPropertyOp3
 70
     1
102
RTVSPropertyOp4
 70
     1
102
RTVSPropertyOp5
 70
     1
102
RTVSPropertyOp6
 70
     1
102
RTVSPropertyOp7
 70
     1
102
RTVSPropertyOp8
 70
     1
102
RTVSPropertyOp9
 70
     1
102
RTVSPropertyOp10
 70
     1
102
RTVSPropertyOp11
 70
     1
102
RTVSPropertyOp12
 70
     1
102
RTVSPropertyOp13
 70
     1
102
RTVSPropertyOp14
 70
     1
102
RTVSPropertyOp15
 70
     1
102
RTVSPropertyOp16
 70
     1
102
RTVSPropertyOp17
 70
     1
102
RTVSPropertyOp18
 70
     1
102
RTVSPropertyOp19
 70
     1
102
RTVSPropertyOp20
 70
     1
102
RTVSPropertyOp21
 70
     1
102
RTVSPropertyOp22
 70
     1
102
RTVSPropertyOp23
 70
     1
102
RTVSPropertyOp24
 70
     1
102
RTVSPropertyOp25
 70
     1
102
RTVSPropertyOp26
 70
     1
102
RTVSPropertyOp27
 70
     1
102
RTVSPropertyOp28
 70
     1
102
RTVSPropertyOp29
 70
     1
102
RTVSPropertyOp30
 70
     1
102
RTVSPropertyOp31
 70
     1
102
RTVSPropertyOp32
 70
     1
102
RTVSPropertyOp33
 70
     1
102
RTVSPropertyOp34
 70
     1
102
RTVSPropertyOp35
 70
     1
102
RTVSPropertyOp36
 70
     1
102
RTVSPropertyOp37
 70
     1
102
RTVSPropertyOp38
 70
     1
102
RTVSPropertyOp39
 70
     1
102
RTVSPropertyOp40
 70
     1
102
RTVSPropertyOp41
 70
     1
102
RTVSPropertyOp42
 70
     1
102
RTVSPropertyOp43
 70
     1
102
RTVSPropertyOp44
 70
     1
102
RTVSPropertyOp45
 70
     1
102
RTVSPropertyOp46
 70
     1
102
RTVSPropertyOp47
 70
     1
102
RTVSPropertyOp48
 70
     1
102
RTVSPropertyOp49
 70
     1
102
RTVSPropertyOp50
 70
     1
102
RTVSPropertyOp51
 70
     0
102
RTVSPropertyOp52
 70
     0
102
RTVSPropertyOp53
 70
     1
102
RTVSPropertyOp54
 70
     1
102
RTVSPropertyOp55
 70
     1
102
RTVSPropertyOp56
 70
     1
102
RTVSPropertyOp57
 70
     1
102
RTVSPropertyOp58
 70
     1
102
RTVSPropertyOp59
 70
     1
102
RTVSPropertyOp60
 70
     1
102
RTVSPropertyOp61
 70
     1
102
RTVSPropertyOp62
 70
     1
  0
XRECORD
  5
329E
102
{ACAD_REACTORS
330
329D
102
}
330
329D
100
AcDbXrecord
280
     1
102
RTVSPost2010Prop28
280
     0
102
RTVSPost2010PropOp28
 70
     1
102
RTVSPost2010Prop29
280
     1
102
RTVSPost2010PropOp29
 70
     1
102
RTVSPost2010Prop30
280
     1
102
RTVSPost2010PropOp30
 70
     1
102
RTVSPost2010Prop31
280
     0
102
RTVSPost2010PropOp31
 70
     1
102
RTVSPost2010Prop32
280
     0
102
RTVSPost2010PropOp32
 70
     1
102
RTVSPost2010Prop33
280
     0
102
RTVSPost2010PropOp33
 70
     1
102
RTVSPost2010Prop34
280
     0
102
RTVSPost2010PropOp34
 70
     1
102
RTVSPost2010Prop35
280
     0
102
RTVSPost2010PropOp35
 70
     1
102
RTVSPost2010Prop36
280
     0
102
RTVSPost2010PropOp36
 70
     1
102
RTVSPost2010Prop37
 90
       50
102
RTVSPost2010PropOp37
 70
     1
102
RTVSPost2010Prop38
140
0.0
102
RTVSPost2010PropOp38
 70
     1
102
RTVSPost2010Prop39
140
1.0
102
RTVSPost2010PropOp39
 70
     1
102
RTVSPost2010Prop40
 90
        0
102
RTVSPost2010PropOp40
 70
     1
102
RTVSPost2010Prop41ColorIndex
 90
       18
102
RTVSPost2010Prop41ColorRGB
 90
        0
102
RTVSPost2010PropOp41
 70
     1
102
RTVSPost2010Prop42
 90
       50
102
RTVSPost2010PropOp42
 70
     1
102
RTVSPost2010Prop43
 90
        3
102
RTVSPost2010PropOp43
 70
     1
102
RTVSPost2010Prop44ColorIndex
 90
        5
102
RTVSPost2010Prop44ColorRGB
 90
      255
102
RTVSPost2010PropOp44
 70
     1
102
RTVSPost2010Prop45
280
     0
102
RTVSPost2010PropOp45
 70
     1
102
RTVSPost2010Prop46
 90
       50
102
RTVSPost2010PropOp46
 70
     1
102
RTVSPost2010Prop47
 90
       50
102
RTVSPost2010PropOp47
 70
     1
102
RTVSPost2010Prop48
 90
       50
102
RTVSPost2010PropOp48
 70
     1
102
RTVSPost2010Prop49
280
     0
102
RTVSPost2010PropOp49
 70
     1
102
RTVSPost2010Prop50
 90
       50
102
RTVSPost2010PropOp50
 70
     1
102
RTVSPost2010Prop51ColorIndex
 90
      256
102
RTVSPost2010Prop51ColorRGB
 90
-16777216
102
RTVSPost2010PropOp51
 70
     0
102
RTVSPost2010Prop52
140
1.0
102
RTVSPost2010PropOp52
 70
     0
102
RTVSPost2010Prop53
 90
        2
102
RTVSPost2010PropOp53
 70
     1
102
RTVSPost2010Prop54
  1
strokes_ogs.tif
102
RTVSPost2010PropOp54
 70
     1
102
RTVSPost2010Prop55
280
     0
102
RTVSPost2010PropOp55
 70
     1
102
RTVSPost2010Prop56
140
1.0
102
RTVSPost2010PropOp56
 70
     1
102
RTVSPost2010Prop57
140
1.0
102
RTVSPost2010PropOp57
 70
     1
102
RTVSPropertyOp0
 70
     1
102
RTVSPropertyOp1
 70
     1
102
RTVSPropertyOp2
 70
     1
102
RTVSPropertyOp3
 70
     1
102
RTVSPropertyOp4
 70
     1
102
RTVSPropertyOp5
 70
     1
102
RTVSPropertyOp6
 70
     1
102
RTVSPropertyOp7
 70
     1
102
RTVSPropertyOp8
 70
     1
102
RTVSPropertyOp9
 70
     1
102
RTVSPropertyOp10
 70
     1
102
RTVSPropertyOp11
 70
     1
102
RTVSPropertyOp12
 70
     1
102
RTVSPropertyOp13
 70
     1
102
RTVSPropertyOp14
 70
     1
102
RTVSPropertyOp15
 70
     1
102
RTVSPropertyOp16
 70
     1
102
RTVSPropertyOp17
 70
     1
102
RTVSPropertyOp18
 70
     1
102
RTVSPropertyOp19
 70
     1
102
RTVSPropertyOp20
 70
     1
102
RTVSPropertyOp21
 70
     1
102
RTVSPropertyOp22
 70
     1
102
RTVSPropertyOp23
 70
     1
102
RTVSPropertyOp24
 70
     1
102
RTVSPropertyOp25
 70
     1
102
RTVSPropertyOp26
 70
     1
102
RTVSPropertyOp27
 70
     1
102
RTVSPropertyOp28
 70
     1
102
RTVSPropertyOp29
 70
     1
102
RTVSPropertyOp30
 70
     1
102
RTVSPropertyOp31
 70
     1
102
RTVSPropertyOp32
 70
     1
102
RTVSPropertyOp33
 70
     1
102
RTVSPropertyOp34
 70
     1
102
RTVSPropertyOp35
 70
     1
102
RTVSPropertyOp36
 70
     1
102
RTVSPropertyOp37
 70
     1
102
RTVSPropertyOp38
 70
     1
102
RTVSPropertyOp39
 70
     1
102
RTVSPropertyOp40
 70
     1
102
RTVSPropertyOp41
 70
     1
102
RTVSPropertyOp42
 70
     1
102
RTVSPropertyOp43
 70
     1
102
RTVSPropertyOp44
 70
     1
102
RTVSPropertyOp45
 70
     1
102
RTVSPropertyOp46
 70
     1
102
RTVSPropertyOp47
 70
     1
102
RTVSPropertyOp48
 70
     1
102
RTVSPropertyOp49
 70
     1
102
RTVSPropertyOp50
 70
     1
102
RTVSPropertyOp51
 70
     0
102
RTVSPropertyOp52
 70
     0
102
RTVSPropertyOp53
 70
     1
102
RTVSPropertyOp54
 70
     1
102
RTVSPropertyOp55
 70
     1
102
RTVSPropertyOp56
 70
     1
102
RTVSPropertyOp57
 70
     1
102
RTVSPropertyOp58
 70
     1
102
RTVSPropertyOp59
 70
     1
102
RTVSPropertyOp60
 70
     1
102
RTVSPropertyOp61
 70
     1
102
RTVSPropertyOp62
 70
     1
  0
XRECORD
  5
32BA
102
{ACAD_REACTORS
330
32B9
102
}
330
32B9
100
AcDbXrecord
280
     1
102
RTVSPost2010Prop28
280
     0
102
RTVSPost2010PropOp28
 70
     1
102
RTVSPost2010Prop29
280
     1
102
RTVSPost2010PropOp29
 70
     1
102
RTVSPost2010Prop30
280
     1
102
RTVSPost2010PropOp30
 70
     1
102
RTVSPost2010Prop31
280
     0
102
RTVSPost2010PropOp31
 70
     1
102
RTVSPost2010Prop32
280
     0
102
RTVSPost2010PropOp32
 70
     1
102
RTVSPost2010Prop33
280
     0
102
RTVSPost2010PropOp33
 70
     1
102
RTVSPost2010Prop34
280
     0
102
RTVSPost2010PropOp34
 70
     1
102
RTVSPost2010Prop35
280
     0
102
RTVSPost2010PropOp35
 70
     1
102
RTVSPost2010Prop36
280
     0
102
RTVSPost2010PropOp36
 70
     1
102
RTVSPost2010Prop37
 90
       50
102
RTVSPost2010PropOp37
 70
     1
102
RTVSPost2010Prop38
140
0.0
102
RTVSPost2010PropOp38
 70
     1
102
RTVSPost2010Prop39
140
1.0
102
RTVSPost2010PropOp39
 70
     1
102
RTVSPost2010Prop40
 90
        0
102
RTVSPost2010PropOp40
 70
     1
102
RTVSPost2010Prop41ColorIndex
 90
       18
102
RTVSPost2010Prop41ColorRGB
 90
        0
102
RTVSPost2010PropOp41
 70
     1
102
RTVSPost2010Prop42
 90
       50
102
RTVSPost2010PropOp42
 70
     1
102
RTVSPost2010Prop43
 90
        3
102
RTVSPost2010PropOp43
 70
     1
102
RTVSPost2010Prop44ColorIndex
 90
        5
102
RTVSPost2010Prop44ColorRGB
 90
      255
102
RTVSPost2010PropOp44
 70
     1
102
RTVSPost2010Prop45
280
     0
102
RTVSPost2010PropOp45
 70
     1
102
RTVSPost2010Prop46
 90
       50
102
RTVSPost2010PropOp46
 70
     1
102
RTVSPost2010Prop47
 90
       50
102
RTVSPost2010PropOp47
 70
     1
102
RTVSPost2010Prop48
 90
       50
102
RTVSPost2010PropOp48
 70
     1
102
RTVSPost2010Prop49
280
     0
102
RTVSPost2010PropOp49
 70
     1
102
RTVSPost2010Prop50
 90
       50
102
RTVSPost2010PropOp50
 70
     1
102
RTVSPost2010Prop51ColorIndex
 90
      256
102
RTVSPost2010Prop51ColorRGB
 90
-16777216
102
RTVSPost2010PropOp51
 70
     0
102
RTVSPost2010Prop52
140
1.0
102
RTVSPost2010PropOp52
 70
     0
102
RTVSPost2010Prop53
 90
        2
102
RTVSPost2010PropOp53
 70
     1
102
RTVSPost2010Prop54
  1
strokes_ogs.tif
102
RTVSPost2010PropOp54
 70
     1
102
RTVSPost2010Prop55
280
     0
102
RTVSPost2010PropOp55
 70
     1
102
RTVSPost2010Prop56
140
1.0
102
RTVSPost2010PropOp56
 70
     1
102
RTVSPost2010Prop57
140
1.0
102
RTVSPost2010PropOp57
 70
     1
102
RTVSPropertyOp0
 70
     1
102
RTVSPropertyOp1
 70
     1
102
RTVSPropertyOp2
 70
     1
102
RTVSPropertyOp3
 70
     1
102
RTVSPropertyOp4
 70
     1
102
RTVSPropertyOp5
 70
     1
102
RTVSPropertyOp6
 70
     1
102
RTVSPropertyOp7
 70
     1
102
RTVSPropertyOp8
 70
     1
102
RTVSPropertyOp9
 70
     1
102
RTVSPropertyOp10
 70
     1
102
RTVSPropertyOp11
 70
     1
102
RTVSPropertyOp12
 70
     1
102
RTVSPropertyOp13
 70
     1
102
RTVSPropertyOp14
 70
     1
102
RTVSPropertyOp15
 70
     1
102
RTVSPropertyOp16
 70
     1
102
RTVSPropertyOp17
 70
     1
102
RTVSPropertyOp18
 70
     1
102
RTVSPropertyOp19
 70
     1
102
RTVSPropertyOp20
 70
     1
102
RTVSPropertyOp21
 70
     1
102
RTVSPropertyOp22
 70
     1
102
RTVSPropertyOp23
 70
     1
102
RTVSPropertyOp24
 70
     1
102
RTVSPropertyOp25
 70
     1
102
RTVSPropertyOp26
 70
     1
102
RTVSPropertyOp27
 70
     1
102
RTVSPropertyOp28
 70
     1
102
RTVSPropertyOp29
 70
     1
102
RTVSPropertyOp30
 70
     1
102
RTVSPropertyOp31
 70
     1
102
RTVSPropertyOp32
 70
     1
102
RTVSPropertyOp33
 70
     1
102
RTVSPropertyOp34
 70
     1
102
RTVSPropertyOp35
 70
     1
102
RTVSPropertyOp36
 70
     1
102
RTVSPropertyOp37
 70
     1
102
RTVSPropertyOp38
 70
     1
102
RTVSPropertyOp39
 70
     1
102
RTVSPropertyOp40
 70
     1
102
RTVSPropertyOp41
 70
     1
102
RTVSPropertyOp42
 70
     1
102
RTVSPropertyOp43
 70
     1
102
RTVSPropertyOp44
 70
     1
102
RTVSPropertyOp45
 70
     1
102
RTVSPropertyOp46
 70
     1
102
RTVSPropertyOp47
 70
     1
102
RTVSPropertyOp48
 70
     1
102
RTVSPropertyOp49
 70
     1
102
RTVSPropertyOp50
 70
     1
102
RTVSPropertyOp51
 70
     0
102
RTVSPropertyOp52
 70
     0
102
RTVSPropertyOp53
 70
     1
102
RTVSPropertyOp54
 70
     1
102
RTVSPropertyOp55
 70
     1
102
RTVSPropertyOp56
 70
     1
102
RTVSPropertyOp57
 70
     1
102
RTVSPropertyOp58
 70
     1
102
RTVSPropertyOp59
 70
     1
102
RTVSPropertyOp60
 70
     1
102
RTVSPropertyOp61
 70
     1
102
RTVSPropertyOp62
 70
     1
  0
XRECORD
  5
32C6
102
{ACAD_REACTORS
330
32C5
102
}
330
32C5
100
AcDbXrecord
280
     1
102
RTVSPost2010Prop28
280
     0
102
RTVSPost2010PropOp28
 70
     1
102
RTVSPost2010Prop29
280
     1
102
RTVSPost2010PropOp29
 70
     1
102
RTVSPost2010Prop30
280
     1
102
RTVSPost2010PropOp30
 70
     1
102
RTVSPost2010Prop31
280
     0
102
RTVSPost2010PropOp31
 70
     1
102
RTVSPost2010Prop32
280
     0
102
RTVSPost2010PropOp32
 70
     1
102
RTVSPost2010Prop33
280
     0
102
RTVSPost2010PropOp33
 70
     1
102
RTVSPost2010Prop34
280
     0
102
RTVSPost2010PropOp34
 70
     1
102
RTVSPost2010Prop35
280
     0
102
RTVSPost2010PropOp35
 70
     1
102
RTVSPost2010Prop36
280
     0
102
RTVSPost2010PropOp36
 70
     1
102
RTVSPost2010Prop37
 90
       50
102
RTVSPost2010PropOp37
 70
     0
102
RTVSPost2010Prop38
140
0.0
102
RTVSPost2010PropOp38
 70
     0
102
RTVSPost2010Prop39
140
1.0
102
RTVSPost2010PropOp39
 70
     0
102
RTVSPost2010Prop40
 90
        0
102
RTVSPost2010PropOp40
 70
     0
102
RTVSPost2010Prop41ColorIndex
 90
       18
102
RTVSPost2010Prop41ColorRGB
 90
        0
102
RTVSPost2010PropOp41
 70
     0
102
RTVSPost2010Prop42
 90
       50
102
RTVSPost2010PropOp42
 70
     0
102
RTVSPost2010Prop43
 90
        3
102
RTVSPost2010PropOp43
 70
     0
102
RTVSPost2010Prop44ColorIndex
 90
        5
102
RTVSPost2010Prop44ColorRGB
 90
      255
102
RTVSPost2010PropOp44
 70
     0
102
RTVSPost2010Prop45
280
     0
102
RTVSPost2010PropOp45
 70
     1
102
RTVSPost2010Prop46
 90
       50
102
RTVSPost2010PropOp46
 70
     0
102
RTVSPost2010Prop47
 90
       50
102
RTVSPost2010PropOp47
 70
     0
102
RTVSPost2010Prop48
 90
       50
102
RTVSPost2010PropOp48
 70
     0
102
RTVSPost2010Prop49
280
     0
102
RTVSPost2010PropOp49
 70
     1
102
RTVSPost2010Prop50
 90
       50
102
RTVSPost2010PropOp50
 70
     0
102
RTVSPost2010Prop51ColorIndex
 90
      256
102
RTVSPost2010Prop51ColorRGB
 90
-16777216
102
RTVSPost2010PropOp51
 70
     0
102
RTVSPost2010Prop52
140
1.0
102
RTVSPost2010PropOp52
 70
     0
102
RTVSPost2010Prop53
 90
        2
102
RTVSPost2010PropOp53
 70
     0
102
RTVSPost2010Prop54
  1
strokes_ogs.tif
102
RTVSPost2010PropOp54
 70
     0
102
RTVSPost2010Prop55
280
     0
102
RTVSPost2010PropOp55
 70
     1
102
RTVSPost2010Prop56
140
1.0
102
RTVSPost2010PropOp56
 70
     0
102
RTVSPost2010Prop57
140
1.0
102
RTVSPost2010PropOp57
 70
     0
102
RTVSPropertyOp0
 70
     0
102
RTVSPropertyOp1
 70
     0
102
RTVSPropertyOp2
 70
     0
102
RTVSPropertyOp3
 70
     0
102
RTVSPropertyOp4
 70
     0
102
RTVSPropertyOp5
 70
     0
102
RTVSPropertyOp6
 70
     0
102
RTVSPropertyOp7
 70
     0
102
RTVSPropertyOp8
 70
     0
102
RTVSPropertyOp9
 70
     0
102
RTVSPropertyOp10
 70
     0
102
RTVSPropertyOp11
 70
     0
102
RTVSPropertyOp12
 70
     0
102
RTVSPropertyOp13
 70
     0
102
RTVSPropertyOp14
 70
     2
102
RTVSPropertyOp15
 70
     0
102
RTVSPropertyOp16
 70
     0
102
RTVSPropertyOp17
 70
     0
102
RTVSPropertyOp18
 70
     0
102
RTVSPropertyOp19
 70
     0
102
RTVSPropertyOp20
 70
     0
102
RTVSPropertyOp21
 70
     0
102
RTVSPropertyOp22
 70
     0
102
RTVSPropertyOp23
 70
     0
102
RTVSPropertyOp24
 70
     0
102
RTVSPropertyOp25
 70
     0
102
RTVSPropertyOp26
 70
     0
102
RTVSPropertyOp27
 70
     0
102
RTVSPropertyOp28
 70
     1
102
RTVSPropertyOp29
 70
     1
102
RTVSPropertyOp30
 70
     1
102
RTVSPropertyOp31
 70
     1
102
RTVSPropertyOp32
 70
     1
102
RTVSPropertyOp33
 70
     1
102
RTVSPropertyOp34
 70
     1
102
RTVSPropertyOp35
 70
     1
102
RTVSPropertyOp36
 70
     1
102
RTVSPropertyOp37
 70
     0
102
RTVSPropertyOp38
 70
     0
102
RTVSPropertyOp39
 70
     0
102
RTVSPropertyOp40
 70
     0
102
RTVSPropertyOp41
 70
     0
102
RTVSPropertyOp42
 70
     0
102
RTVSPropertyOp43
 70
     0
102
RTVSPropertyOp44
 70
     0
102
RTVSPropertyOp45
 70
     1
102
RTVSPropertyOp46
 70
     0
102
RTVSPropertyOp47
 70
     0
102
RTVSPropertyOp48
 70
     0
102
RTVSPropertyOp49
 70
     1
102
RTVSPropertyOp50
 70
     0
102
RTVSPropertyOp51
 70
     0
102
RTVSPropertyOp52
 70
     0
102
RTVSPropertyOp53
 70
     0
102
RTVSPropertyOp54
 70
     0
102
RTVSPropertyOp55
 70
     1
102
RTVSPropertyOp56
 70
     0
102
RTVSPropertyOp57
 70
     0
102
RTVSPropertyOp58
 70
     0
102
RTVSPropertyOp59
 70
     0
102
RTVSPropertyOp60
 70
     0
102
RTVSPropertyOp61
 70
     0
102
RTVSPropertyOp62
 70
     0
  0
XRECORD
  5
32B2
102
{ACAD_REACTORS
330
32B1
102
}
330
32B1
100
AcDbXrecord
280
     1
102
RTVSPost2010Prop28
280
     0
102
RTVSPost2010PropOp28
 70
     1
102
RTVSPost2010Prop29
280
     1
102
RTVSPost2010PropOp29
 70
     1
102
RTVSPost2010Prop30
280
     1
102
RTVSPost2010PropOp30
 70
     1
102
RTVSPost2010Prop31
280
     0
102
RTVSPost2010PropOp31
 70
     1
102
RTVSPost2010Prop32
280
     0
102
RTVSPost2010PropOp32
 70
     1
102
RTVSPost2010Prop33
280
     0
102
RTVSPost2010PropOp33
 70
     1
102
RTVSPost2010Prop34
280
     0
102
RTVSPost2010PropOp34
 70
     1
102
RTVSPost2010Prop35
280
     0
102
RTVSPost2010PropOp35
 70
     1
102
RTVSPost2010Prop36
280
     0
102
RTVSPost2010PropOp36
 70
     1
102
RTVSPost2010Prop37
 90
       50
102
RTVSPost2010PropOp37
 70
     1
102
RTVSPost2010Prop38
140
0.0
102
RTVSPost2010PropOp38
 70
     1
102
RTVSPost2010Prop39
140
1.0
102
RTVSPost2010PropOp39
 70
     1
102
RTVSPost2010Prop40
 90
        0
102
RTVSPost2010PropOp40
 70
     1
102
RTVSPost2010Prop41ColorIndex
 90
       18
102
RTVSPost2010Prop41ColorRGB
 90
        0
102
RTVSPost2010PropOp41
 70
     1
102
RTVSPost2010Prop42
 90
       50
102
RTVSPost2010PropOp42
 70
     1
102
RTVSPost2010Prop43
 90
        3
102
RTVSPost2010PropOp43
 70
     1
102
RTVSPost2010Prop44ColorIndex
 90
        5
102
RTVSPost2010Prop44ColorRGB
 90
      255
102
RTVSPost2010PropOp44
 70
     1
102
RTVSPost2010Prop45
280
     0
102
RTVSPost2010PropOp45
 70
     1
102
RTVSPost2010Prop46
 90
       50
102
RTVSPost2010PropOp46
 70
     1
102
RTVSPost2010Prop47
 90
       50
102
RTVSPost2010PropOp47
 70
     1
102
RTVSPost2010Prop48
 90
       50
102
RTVSPost2010PropOp48
 70
     1
102
RTVSPost2010Prop49
280
     0
102
RTVSPost2010PropOp49
 70
     1
102
RTVSPost2010Prop50
 90
       50
102
RTVSPost2010PropOp50
 70
     1
102
RTVSPost2010Prop51ColorIndex
 90
      256
102
RTVSPost2010Prop51ColorRGB
 90
-16777216
102
RTVSPost2010PropOp51
 70
     0
102
RTVSPost2010Prop52
140
1.0
102
RTVSPost2010PropOp52
 70
     0
102
RTVSPost2010Prop53
 90
        2
102
RTVSPost2010PropOp53
 70
     1
102
RTVSPost2010Prop54
  1
strokes_ogs.tif
102
RTVSPost2010PropOp54
 70
     1
102
RTVSPost2010Prop55
280
     0
102
RTVSPost2010PropOp55
 70
     1
102
RTVSPost2010Prop56
140
1.0
102
RTVSPost2010PropOp56
 70
     1
102
RTVSPost2010Prop57
140
1.0
102
RTVSPost2010PropOp57
 70
     1
102
RTVSPropertyOp0
 70
     1
102
RTVSPropertyOp1
 70
     1
102
RTVSPropertyOp2
 70
     1
102
RTVSPropertyOp3
 70
     1
102
RTVSPropertyOp4
 70
     1
102
RTVSPropertyOp5
 70
     1
102
RTVSPropertyOp6
 70
     1
102
RTVSPropertyOp7
 70
     1
102
RTVSPropertyOp8
 70
     1
102
RTVSPropertyOp9
 70
     1
102
RTVSPropertyOp10
 70
     1
102
RTVSPropertyOp11
 70
     1
102
RTVSPropertyOp12
 70
     1
102
RTVSPropertyOp13
 70
     1
102
RTVSPropertyOp14
 70
     1
102
RTVSPropertyOp15
 70
     1
102
RTVSPropertyOp16
 70
     1
102
RTVSPropertyOp17
 70
     1
102
RTVSPropertyOp18
 70
     1
102
RTVSPropertyOp19
 70
     1
102
RTVSPropertyOp20
 70
     1
102
RTVSPropertyOp21
 70
     1
102
RTVSPropertyOp22
 70
     1
102
RTVSPropertyOp23
 70
     1
102
RTVSPropertyOp24
 70
     1
102
RTVSPropertyOp25
 70
     1
102
RTVSPropertyOp26
 70
     1
102
RTVSPropertyOp27
 70
     1
102
RTVSPropertyOp28
 70
     1
102
RTVSPropertyOp29
 70
     1
102
RTVSPropertyOp30
 70
     1
102
RTVSPropertyOp31
 70
     1
102
RTVSPropertyOp32
 70
     1
102
RTVSPropertyOp33
 70
     1
102
RTVSPropertyOp34
 70
     1
102
RTVSPropertyOp35
 70
     1
102
RTVSPropertyOp36
 70
     1
102
RTVSPropertyOp37
 70
     1
102
RTVSPropertyOp38
 70
     1
102
RTVSPropertyOp39
 70
     1
102
RTVSPropertyOp40
 70
     1
102
RTVSPropertyOp41
 70
     1
102
RTVSPropertyOp42
 70
     1
102
RTVSPropertyOp43
 70
     1
102
RTVSPropertyOp44
 70
     1
102
RTVSPropertyOp45
 70
     1
102
RTVSPropertyOp46
 70
     1
102
RTVSPropertyOp47
 70
     1
102
RTVSPropertyOp48
 70
     1
102
RTVSPropertyOp49
 70
     1
102
RTVSPropertyOp50
 70
     1
102
RTVSPropertyOp51
 70
     0
102
RTVSPropertyOp52
 70
     0
102
RTVSPropertyOp53
 70
     1
102
RTVSPropertyOp54
 70
     1
102
RTVSPropertyOp55
 70
     1
102
RTVSPropertyOp56
 70
     1
102
RTVSPropertyOp57
 70
     1
102
RTVSPropertyOp58
 70
     1
102
RTVSPropertyOp59
 70
     1
102
RTVSPropertyOp60
 70
     1
102
RTVSPropertyOp61
 70
     1
102
RTVSPropertyOp62
 70
     1
  0
XRECORD
  5
32C8
102
{ACAD_REACTORS
330
32C7
102
}
330
32C7
100
AcDbXrecord
280
     1
102
RTVSPost2010Prop28
280
     0
102
RTVSPost2010PropOp28
 70
     1
102
RTVSPost2010Prop29
280
     1
102
RTVSPost2010PropOp29
 70
     1
102
RTVSPost2010Prop30
280
     1
102
RTVSPost2010PropOp30
 70
     1
102
RTVSPost2010Prop31
280
     0
102
RTVSPost2010PropOp31
 70
     1
102
RTVSPost2010Prop32
280
     0
102
RTVSPost2010PropOp32
 70
     1
102
RTVSPost2010Prop33
280
     0
102
RTVSPost2010PropOp33
 70
     1
102
RTVSPost2010Prop34
280
     0
102
RTVSPost2010PropOp34
 70
     1
102
RTVSPost2010Prop35
280
     0
102
RTVSPost2010PropOp35
 70
     1
102
RTVSPost2010Prop36
280
     0
102
RTVSPost2010PropOp36
 70
     1
102
RTVSPost2010Prop37
 90
       50
102
RTVSPost2010PropOp37
 70
     0
102
RTVSPost2010Prop38
140
0.0
102
RTVSPost2010PropOp38
 70
     0
102
RTVSPost2010Prop39
140
1.0
102
RTVSPost2010PropOp39
 70
     0
102
RTVSPost2010Prop40
 90
        0
102
RTVSPost2010PropOp40
 70
     0
102
RTVSPost2010Prop41ColorIndex
 90
       18
102
RTVSPost2010Prop41ColorRGB
 90
        0
102
RTVSPost2010PropOp41
 70
     0
102
RTVSPost2010Prop42
 90
       50
102
RTVSPost2010PropOp42
 70
     0
102
RTVSPost2010Prop43
 90
        3
102
RTVSPost2010PropOp43
 70
     0
102
RTVSPost2010Prop44ColorIndex
 90
        5
102
RTVSPost2010Prop44ColorRGB
 90
      255
102
RTVSPost2010PropOp44
 70
     0
102
RTVSPost2010Prop45
280
     0
102
RTVSPost2010PropOp45
 70
     1
102
RTVSPost2010Prop46
 90
       50
102
RTVSPost2010PropOp46
 70
     0
102
RTVSPost2010Prop47
 90
       50
102
RTVSPost2010PropOp47
 70
     0
102
RTVSPost2010Prop48
 90
       50
102
RTVSPost2010PropOp48
 70
     0
102
RTVSPost2010Prop49
280
     0
102
RTVSPost2010PropOp49
 70
     1
102
RTVSPost2010Prop50
 90
       50
102
RTVSPost2010PropOp50
 70
     0
102
RTVSPost2010Prop51ColorIndex
 90
      256
102
RTVSPost2010Prop51ColorRGB
 90
-16777216
102
RTVSPost2010PropOp51
 70
     0
102
RTVSPost2010Prop52
140
1.0
102
RTVSPost2010PropOp52
 70
     0
102
RTVSPost2010Prop53
 90
        2
102
RTVSPost2010PropOp53
 70
     0
102
RTVSPost2010Prop54
  1
strokes_ogs.tif
102
RTVSPost2010PropOp54
 70
     0
102
RTVSPost2010Prop55
280
     0
102
RTVSPost2010PropOp55
 70
     1
102
RTVSPost2010Prop56
140
1.0
102
RTVSPost2010PropOp56
 70
     0
102
RTVSPost2010Prop57
140
1.0
102
RTVSPost2010PropOp57
 70
     0
102
RTVSPropertyOp0
 70
     0
102
RTVSPropertyOp1
 70
     0
102
RTVSPropertyOp2
 70
     0
102
RTVSPropertyOp3
 70
     0
102
RTVSPropertyOp4
 70
     0
102
RTVSPropertyOp5
 70
     0
102
RTVSPropertyOp6
 70
     0
102
RTVSPropertyOp7
 70
     0
102
RTVSPropertyOp8
 70
     0
102
RTVSPropertyOp9
 70
     0
102
RTVSPropertyOp10
 70
     0
102
RTVSPropertyOp11
 70
     0
102
RTVSPropertyOp12
 70
     0
102
RTVSPropertyOp13
 70
     0
102
RTVSPropertyOp14
 70
     2
102
RTVSPropertyOp15
 70
     0
102
RTVSPropertyOp16
 70
     0
102
RTVSPropertyOp17
 70
     0
102
RTVSPropertyOp18
 70
     0
102
RTVSPropertyOp19
 70
     0
102
RTVSPropertyOp20
 70
     0
102
RTVSPropertyOp21
 70
     0
102
RTVSPropertyOp22
 70
     0
102
RTVSPropertyOp23
 70
     0
102
RTVSPropertyOp24
 70
     0
102
RTVSPropertyOp25
 70
     0
102
RTVSPropertyOp26
 70
     0
102
RTVSPropertyOp27
 70
     0
102
RTVSPropertyOp28
 70
     1
102
RTVSPropertyOp29
 70
     1
102
RTVSPropertyOp30
 70
     1
102
RTVSPropertyOp31
 70
     1
102
RTVSPropertyOp32
 70
     1
102
RTVSPropertyOp33
 70
     1
102
RTVSPropertyOp34
 70
     1
102
RTVSPropertyOp35
 70
     1
102
RTVSPropertyOp36
 70
     1
102
RTVSPropertyOp37
 70
     0
102
RTVSPropertyOp38
 70
     0
102
RTVSPropertyOp39
 70
     0
102
RTVSPropertyOp40
 70
     0
102
RTVSPropertyOp41
 70
     0
102
RTVSPropertyOp42
 70
     0
102
RTVSPropertyOp43
 70
     0
102
RTVSPropertyOp44
 70
     0
102
RTVSPropertyOp45
 70
     1
102
RTVSPropertyOp46
 70
     0
102
RTVSPropertyOp47
 70
     0
102
RTVSPropertyOp48
 70
     0
102
RTVSPropertyOp49
 70
     1
102
RTVSPropertyOp50
 70
     0
102
RTVSPropertyOp51
 70
     0
102
RTVSPropertyOp52
 70
     0
102
RTVSPropertyOp53
 70
     0
102
RTVSPropertyOp54
 70
     0
102
RTVSPropertyOp55
 70
     1
102
RTVSPropertyOp56
 70
     0
102
RTVSPropertyOp57
 70
     0
102
RTVSPropertyOp58
 70
     0
102
RTVSPropertyOp59
 70
     0
102
RTVSPropertyOp60
 70
     0
102
RTVSPropertyOp61
 70
     0
102
RTVSPropertyOp62
 70
     0
  0
XRECORD
  5
32AA
102
{ACAD_REACTORS
330
32A9
102
}
330
32A9
100
AcDbXrecord
280
     1
102
RTVSPost2010Prop28
280
     0
102
RTVSPost2010PropOp28
 70
     1
102
RTVSPost2010Prop29
280
     1
102
RTVSPost2010PropOp29
 70
     1
102
RTVSPost2010Prop30
280
     1
102
RTVSPost2010PropOp30
 70
     1
102
RTVSPost2010Prop31
280
     0
102
RTVSPost2010PropOp31
 70
     1
102
RTVSPost2010Prop32
280
     0
102
RTVSPost2010PropOp32
 70
     1
102
RTVSPost2010Prop33
280
     0
102
RTVSPost2010PropOp33
 70
     1
102
RTVSPost2010Prop34
280
     0
102
RTVSPost2010PropOp34
 70
     1
102
RTVSPost2010Prop35
280
     0
102
RTVSPost2010PropOp35
 70
     1
102
RTVSPost2010Prop36
280
     0
102
RTVSPost2010PropOp36
 70
     1
102
RTVSPost2010Prop37
 90
       50
102
RTVSPost2010PropOp37
 70
     1
102
RTVSPost2010Prop38
140
0.0
102
RTVSPost2010PropOp38
 70
     1
102
RTVSPost2010Prop39
140
1.0
102
RTVSPost2010PropOp39
 70
     1
102
RTVSPost2010Prop40
 90
        0
102
RTVSPost2010PropOp40
 70
     1
102
RTVSPost2010Prop41ColorIndex
 90
       18
102
RTVSPost2010Prop41ColorRGB
 90
        0
102
RTVSPost2010PropOp41
 70
     1
102
RTVSPost2010Prop42
 90
       50
102
RTVSPost2010PropOp42
 70
     1
102
RTVSPost2010Prop43
 90
        3
102
RTVSPost2010PropOp43
 70
     1
102
RTVSPost2010Prop44ColorIndex
 90
        5
102
RTVSPost2010Prop44ColorRGB
 90
      255
102
RTVSPost2010PropOp44
 70
     1
102
RTVSPost2010Prop45
280
     0
102
RTVSPost2010PropOp45
 70
     1
102
RTVSPost2010Prop46
 90
       50
102
RTVSPost2010PropOp46
 70
     1
102
RTVSPost2010Prop47
 90
       50
102
RTVSPost2010PropOp47
 70
     1
102
RTVSPost2010Prop48
 90
       50
102
RTVSPost2010PropOp48
 70
     1
102
RTVSPost2010Prop49
280
     0
102
RTVSPost2010PropOp49
 70
     1
102
RTVSPost2010Prop50
 90
       50
102
RTVSPost2010PropOp50
 70
     1
102
RTVSPost2010Prop51ColorIndex
 90
      256
102
RTVSPost2010Prop51ColorRGB
 90
-16777216
102
RTVSPost2010PropOp51
 70
     0
102
RTVSPost2010Prop52
140
1.0
102
RTVSPost2010PropOp52
 70
     0
102
RTVSPost2010Prop53
 90
        2
102
RTVSPost2010PropOp53
 70
     1
102
RTVSPost2010Prop54
  1
strokes_ogs.tif
102
RTVSPost2010PropOp54
 70
     1
102
RTVSPost2010Prop55
280
     0
102
RTVSPost2010PropOp55
 70
     1
102
RTVSPost2010Prop56
140
1.0
102
RTVSPost2010PropOp56
 70
     1
102
RTVSPost2010Prop57
140
1.0
102
RTVSPost2010PropOp57
 70
     1
102
RTVSPropertyOp0
 70
     1
102
RTVSPropertyOp1
 70
     1
102
RTVSPropertyOp2
 70
     1
102
RTVSPropertyOp3
 70
     1
102
RTVSPropertyOp4
 70
     1
102
RTVSPropertyOp5
 70
     1
102
RTVSPropertyOp6
 70
     1
102
RTVSPropertyOp7
 70
     1
102
RTVSPropertyOp8
 70
     1
102
RTVSPropertyOp9
 70
     1
102
RTVSPropertyOp10
 70
     1
102
RTVSPropertyOp11
 70
     1
102
RTVSPropertyOp12
 70
     1
102
RTVSPropertyOp13
 70
     1
102
RTVSPropertyOp14
 70
     1
102
RTVSPropertyOp15
 70
     1
102
RTVSPropertyOp16
 70
     1
102
RTVSPropertyOp17
 70
     1
102
RTVSPropertyOp18
 70
     1
102
RTVSPropertyOp19
 70
     1
102
RTVSPropertyOp20
 70
     1
102
RTVSPropertyOp21
 70
     1
102
RTVSPropertyOp22
 70
     1
102
RTVSPropertyOp23
 70
     1
102
RTVSPropertyOp24
 70
     1
102
RTVSPropertyOp25
 70
     1
102
RTVSPropertyOp26
 70
     1
102
RTVSPropertyOp27
 70
     1
102
RTVSPropertyOp28
 70
     1
102
RTVSPropertyOp29
 70
     1
102
RTVSPropertyOp30
 70
     1
102
RTVSPropertyOp31
 70
     1
102
RTVSPropertyOp32
 70
     1
102
RTVSPropertyOp33
 70
     1
102
RTVSPropertyOp34
 70
     1
102
RTVSPropertyOp35
 70
     1
102
RTVSPropertyOp36
 70
     1
102
RTVSPropertyOp37
 70
     1
102
RTVSPropertyOp38
 70
     1
102
RTVSPropertyOp39
 70
     1
102
RTVSPropertyOp40
 70
     1
102
RTVSPropertyOp41
 70
     1
102
RTVSPropertyOp42
 70
     1
102
RTVSPropertyOp43
 70
     1
102
RTVSPropertyOp44
 70
     1
102
RTVSPropertyOp45
 70
     1
102
RTVSPropertyOp46
 70
     1
102
RTVSPropertyOp47
 70
     1
102
RTVSPropertyOp48
 70
     1
102
RTVSPropertyOp49
 70
     1
102
RTVSPropertyOp50
 70
     1
102
RTVSPropertyOp51
 70
     0
102
RTVSPropertyOp52
 70
     0
102
RTVSPropertyOp53
 70
     1
102
RTVSPropertyOp54
 70
     1
102
RTVSPropertyOp55
 70
     1
102
RTVSPropertyOp56
 70
     1
102
RTVSPropertyOp57
 70
     1
102
RTVSPropertyOp58
 70
     1
102
RTVSPropertyOp59
 70
     1
102
RTVSPropertyOp60
 70
     1
102
RTVSPropertyOp61
 70
     1
102
RTVSPropertyOp62
 70
     1
  0
XRECORD
  5
32C4
102
{ACAD_REACTORS
330
32C3
102
}
330
32C3
100
AcDbXrecord
280
     1
102
RTVSPost2010Prop28
280
     0
102
RTVSPost2010PropOp28
 70
     1
102
RTVSPost2010Prop29
280
     1
102
RTVSPost2010PropOp29
 70
     1
102
RTVSPost2010Prop30
280
     1
102
RTVSPost2010PropOp30
 70
     1
102
RTVSPost2010Prop31
280
     0
102
RTVSPost2010PropOp31
 70
     1
102
RTVSPost2010Prop32
280
     0
102
RTVSPost2010PropOp32
 70
     1
102
RTVSPost2010Prop33
280
     0
102
RTVSPost2010PropOp33
 70
     1
102
RTVSPost2010Prop34
280
     0
102
RTVSPost2010PropOp34
 70
     1
102
RTVSPost2010Prop35
280
     0
102
RTVSPost2010PropOp35
 70
     1
102
RTVSPost2010Prop36
280
     0
102
RTVSPost2010PropOp36
 70
     1
102
RTVSPost2010Prop37
 90
       50
102
RTVSPost2010PropOp37
 70
     1
102
RTVSPost2010Prop38
140
0.0
102
RTVSPost2010PropOp38
 70
     1
102
RTVSPost2010Prop39
140
1.0
102
RTVSPost2010PropOp39
 70
     1
102
RTVSPost2010Prop40
 90
        0
102
RTVSPost2010PropOp40
 70
     1
102
RTVSPost2010Prop41ColorIndex
 90
       18
102
RTVSPost2010Prop41ColorRGB
 90
        0
102
RTVSPost2010PropOp41
 70
     1
102
RTVSPost2010Prop42
 90
       50
102
RTVSPost2010PropOp42
 70
     1
102
RTVSPost2010Prop43
 90
        3
102
RTVSPost2010PropOp43
 70
     1
102
RTVSPost2010Prop44ColorIndex
 90
        5
102
RTVSPost2010Prop44ColorRGB
 90
      255
102
RTVSPost2010PropOp44
 70
     1
102
RTVSPost2010Prop45
280
     0
102
RTVSPost2010PropOp45
 70
     1
102
RTVSPost2010Prop46
 90
       50
102
RTVSPost2010PropOp46
 70
     1
102
RTVSPost2010Prop47
 90
       50
102
RTVSPost2010PropOp47
 70
     1
102
RTVSPost2010Prop48
 90
       50
102
RTVSPost2010PropOp48
 70
     1
102
RTVSPost2010Prop49
280
     0
102
RTVSPost2010PropOp49
 70
     1
102
RTVSPost2010Prop50
 90
       50
102
RTVSPost2010PropOp50
 70
     1
102
RTVSPost2010Prop51ColorIndex
 90
      256
102
RTVSPost2010Prop51ColorRGB
 90
-16777216
102
RTVSPost2010PropOp51
 70
     0
102
RTVSPost2010Prop52
140
1.0
102
RTVSPost2010PropOp52
 70
     0
102
RTVSPost2010Prop53
 90
        2
102
RTVSPost2010PropOp53
 70
     1
102
RTVSPost2010Prop54
  1
strokes_ogs.tif
102
RTVSPost2010PropOp54
 70
     1
102
RTVSPost2010Prop55
280
     0
102
RTVSPost2010PropOp55
 70
     1
102
RTVSPost2010Prop56
140
1.0
102
RTVSPost2010PropOp56
 70
     1
102
RTVSPost2010Prop57
140
1.0
102
RTVSPost2010PropOp57
 70
     1
102
RTVSPropertyOp0
 70
     1
102
RTVSPropertyOp1
 70
     1
102
RTVSPropertyOp2
 70
     1
102
RTVSPropertyOp3
 70
     1
102
RTVSPropertyOp4
 70
     1
102
RTVSPropertyOp5
 70
     1
102
RTVSPropertyOp6
 70
     1
102
RTVSPropertyOp7
 70
     1
102
RTVSPropertyOp8
 70
     1
102
RTVSPropertyOp9
 70
     1
102
RTVSPropertyOp10
 70
     1
102
RTVSPropertyOp11
 70
     1
102
RTVSPropertyOp12
 70
     1
102
RTVSPropertyOp13
 70
     1
102
RTVSPropertyOp14
 70
     1
102
RTVSPropertyOp15
 70
     1
102
RTVSPropertyOp16
 70
     1
102
RTVSPropertyOp17
 70
     1
102
RTVSPropertyOp18
 70
     1
102
RTVSPropertyOp19
 70
     1
102
RTVSPropertyOp20
 70
     1
102
RTVSPropertyOp21
 70
     1
102
RTVSPropertyOp22
 70
     1
102
RTVSPropertyOp23
 70
     1
102
RTVSPropertyOp24
 70
     1
102
RTVSPropertyOp25
 70
     1
102
RTVSPropertyOp26
 70
     1
102
RTVSPropertyOp27
 70
     1
102
RTVSPropertyOp28
 70
     1
102
RTVSPropertyOp29
 70
     1
102
RTVSPropertyOp30
 70
     1
102
RTVSPropertyOp31
 70
     1
102
RTVSPropertyOp32
 70
     1
102
RTVSPropertyOp33
 70
     1
102
RTVSPropertyOp34
 70
     1
102
RTVSPropertyOp35
 70
     1
102
RTVSPropertyOp36
 70
     1
102
RTVSPropertyOp37
 70
     1
102
RTVSPropertyOp38
 70
     1
102
RTVSPropertyOp39
 70
     1
102
RTVSPropertyOp40
 70
     1
102
RTVSPropertyOp41
 70
     1
102
RTVSPropertyOp42
 70
     1
102
RTVSPropertyOp43
 70
     1
102
RTVSPropertyOp44
 70
     1
102
RTVSPropertyOp45
 70
     1
102
RTVSPropertyOp46
 70
     1
102
RTVSPropertyOp47
 70
     1
102
RTVSPropertyOp48
 70
     1
102
RTVSPropertyOp49
 70
     1
102
RTVSPropertyOp50
 70
     1
102
RTVSPropertyOp51
 70
     0
102
RTVSPropertyOp52
 70
     0
102
RTVSPropertyOp53
 70
     1
102
RTVSPropertyOp54
 70
     1
102
RTVSPropertyOp55
 70
     1
102
RTVSPropertyOp56
 70
     1
102
RTVSPropertyOp57
 70
     1
102
RTVSPropertyOp58
 70
     1
102
RTVSPropertyOp59
 70
     1
102
RTVSPropertyOp60
 70
     1
102
RTVSPropertyOp61
 70
     1
102
RTVSPropertyOp62
 70
     1
  0
XRECORD
  5
32C2
102
{ACAD_REACTORS
330
32C1
102
}
330
32C1
100
AcDbXrecord
280
     1
102
RTVSPost2010Prop28
280
     0
102
RTVSPost2010PropOp28
 70
     1
102
RTVSPost2010Prop29
280
     1
102
RTVSPost2010PropOp29
 70
     1
102
RTVSPost2010Prop30
280
     1
102
RTVSPost2010PropOp30
 70
     1
102
RTVSPost2010Prop31
280
     0
102
RTVSPost2010PropOp31
 70
     1
102
RTVSPost2010Prop32
280
     0
102
RTVSPost2010PropOp32
 70
     1
102
RTVSPost2010Prop33
280
     0
102
RTVSPost2010PropOp33
 70
     1
102
RTVSPost2010Prop34
280
     0
102
RTVSPost2010PropOp34
 70
     1
102
RTVSPost2010Prop35
280
     0
102
RTVSPost2010PropOp35
 70
     1
102
RTVSPost2010Prop36
280
     0
102
RTVSPost2010PropOp36
 70
     1
102
RTVSPost2010Prop37
 90
       50
102
RTVSPost2010PropOp37
 70
     1
102
RTVSPost2010Prop38
140
0.0
102
RTVSPost2010PropOp38
 70
     1
102
RTVSPost2010Prop39
140
1.0
102
RTVSPost2010PropOp39
 70
     1
102
RTVSPost2010Prop40
 90
        0
102
RTVSPost2010PropOp40
 70
     1
102
RTVSPost2010Prop41ColorIndex
 90
       18
102
RTVSPost2010Prop41ColorRGB
 90
        0
102
RTVSPost2010PropOp41
 70
     1
102
RTVSPost2010Prop42
 90
       50
102
RTVSPost2010PropOp42
 70
     1
102
RTVSPost2010Prop43
 90
        3
102
RTVSPost2010PropOp43
 70
     1
102
RTVSPost2010Prop44ColorIndex
 90
        5
102
RTVSPost2010Prop44ColorRGB
 90
      255
102
RTVSPost2010PropOp44
 70
     1
102
RTVSPost2010Prop45
280
     0
102
RTVSPost2010PropOp45
 70
     1
102
RTVSPost2010Prop46
 90
       50
102
RTVSPost2010PropOp46
 70
     1
102
RTVSPost2010Prop47
 90
       50
102
RTVSPost2010PropOp47
 70
     1
102
RTVSPost2010Prop48
 90
       50
102
RTVSPost2010PropOp48
 70
     1
102
RTVSPost2010Prop49
280
     0
102
RTVSPost2010PropOp49
 70
     1
102
RTVSPost2010Prop50
 90
       50
102
RTVSPost2010PropOp50
 70
     1
102
RTVSPost2010Prop51ColorIndex
 90
      256
102
RTVSPost2010Prop51ColorRGB
 90
-16777216
102
RTVSPost2010PropOp51
 70
     0
102
RTVSPost2010Prop52
140
1.0
102
RTVSPost2010PropOp52
 70
     0
102
RTVSPost2010Prop53
 90
        2
102
RTVSPost2010PropOp53
 70
     1
102
RTVSPost2010Prop54
  1
strokes_ogs.tif
102
RTVSPost2010PropOp54
 70
     1
102
RTVSPost2010Prop55
280
     0
102
RTVSPost2010PropOp55
 70
     1
102
RTVSPost2010Prop56
140
1.0
102
RTVSPost2010PropOp56
 70
     1
102
RTVSPost2010Prop57
140
1.0
102
RTVSPost2010PropOp57
 70
     1
102
RTVSPropertyOp0
 70
     1
102
RTVSPropertyOp1
 70
     1
102
RTVSPropertyOp2
 70
     1
102
RTVSPropertyOp3
 70
     1
102
RTVSPropertyOp4
 70
     1
102
RTVSPropertyOp5
 70
     1
102
RTVSPropertyOp6
 70
     1
102
RTVSPropertyOp7
 70
     1
102
RTVSPropertyOp8
 70
     1
102
RTVSPropertyOp9
 70
     1
102
RTVSPropertyOp10
 70
     1
102
RTVSPropertyOp11
 70
     1
102
RTVSPropertyOp12
 70
     1
102
RTVSPropertyOp13
 70
     1
102
RTVSPropertyOp14
 70
     1
102
RTVSPropertyOp15
 70
     1
102
RTVSPropertyOp16
 70
     1
102
RTVSPropertyOp17
 70
     1
102
RTVSPropertyOp18
 70
     1
102
RTVSPropertyOp19
 70
     1
102
RTVSPropertyOp20
 70
     1
102
RTVSPropertyOp21
 70
     1
102
RTVSPropertyOp22
 70
     1
102
RTVSPropertyOp23
 70
     1
102
RTVSPropertyOp24
 70
     1
102
RTVSPropertyOp25
 70
     1
102
RTVSPropertyOp26
 70
     1
102
RTVSPropertyOp27
 70
     1
102
RTVSPropertyOp28
 70
     1
102
RTVSPropertyOp29
 70
     1
102
RTVSPropertyOp30
 70
     1
102
RTVSPropertyOp31
 70
     1
102
RTVSPropertyOp32
 70
     1
102
RTVSPropertyOp33
 70
     1
102
RTVSPropertyOp34
 70
     1
102
RTVSPropertyOp35
 70
     1
102
RTVSPropertyOp36
 70
     1
102
RTVSPropertyOp37
 70
     1
102
RTVSPropertyOp38
 70
     1
102
RTVSPropertyOp39
 70
     1
102
RTVSPropertyOp40
 70
     1
102
RTVSPropertyOp41
 70
     1
102
RTVSPropertyOp42
 70
     1
102
RTVSPropertyOp43
 70
     1
102
RTVSPropertyOp44
 70
     1
102
RTVSPropertyOp45
 70
     1
102
RTVSPropertyOp46
 70
     1
102
RTVSPropertyOp47
 70
     1
102
RTVSPropertyOp48
 70
     1
102
RTVSPropertyOp49
 70
     1
102
RTVSPropertyOp50
 70
     1
102
RTVSPropertyOp51
 70
     0
102
RTVSPropertyOp52
 70
     0
102
RTVSPropertyOp53
 70
     1
102
RTVSPropertyOp54
 70
     1
102
RTVSPropertyOp55
 70
     1
102
RTVSPropertyOp56
 70
     1
102
RTVSPropertyOp57
 70
     1
102
RTVSPropertyOp58
 70
     1
102
RTVSPropertyOp59
 70
     1
102
RTVSPropertyOp60
 70
     1
102
RTVSPropertyOp61
 70
     1
102
RTVSPropertyOp62
 70
     1
  0
XRECORD
  5
32BC
102
{ACAD_REACTORS
330
32BB
102
}
330
32BB
100
AcDbXrecord
280
     1
102
RTVSPost2010Prop28
280
     0
102
RTVSPost2010PropOp28
 70
     1
102
RTVSPost2010Prop29
280
     1
102
RTVSPost2010PropOp29
 70
     1
102
RTVSPost2010Prop30
280
     1
102
RTVSPost2010PropOp30
 70
     1
102
RTVSPost2010Prop31
280
     0
102
RTVSPost2010PropOp31
 70
     1
102
RTVSPost2010Prop32
280
     0
102
RTVSPost2010PropOp32
 70
     1
102
RTVSPost2010Prop33
280
     0
102
RTVSPost2010PropOp33
 70
     1
102
RTVSPost2010Prop34
280
     0
102
RTVSPost2010PropOp34
 70
     1
102
RTVSPost2010Prop35
280
     0
102
RTVSPost2010PropOp35
 70
     1
102
RTVSPost2010Prop36
280
     0
102
RTVSPost2010PropOp36
 70
     1
102
RTVSPost2010Prop37
 90
       50
102
RTVSPost2010PropOp37
 70
     1
102
RTVSPost2010Prop38
140
0.0
102
RTVSPost2010PropOp38
 70
     1
102
RTVSPost2010Prop39
140
1.0
102
RTVSPost2010PropOp39
 70
     1
102
RTVSPost2010Prop40
 90
        0
102
RTVSPost2010PropOp40
 70
     1
102
RTVSPost2010Prop41ColorIndex
 90
       18
102
RTVSPost2010Prop41ColorRGB
 90
        0
102
RTVSPost2010PropOp41
 70
     1
102
RTVSPost2010Prop42
 90
       50
102
RTVSPost2010PropOp42
 70
     1
102
RTVSPost2010Prop43
 90
        3
102
RTVSPost2010PropOp43
 70
     1
102
RTVSPost2010Prop44ColorIndex
 90
        5
102
RTVSPost2010Prop44ColorRGB
 90
      255
102
RTVSPost2010PropOp44
 70
     1
102
RTVSPost2010Prop45
280
     0
102
RTVSPost2010PropOp45
 70
     1
102
RTVSPost2010Prop46
 90
       50
102
RTVSPost2010PropOp46
 70
     1
102
RTVSPost2010Prop47
 90
       50
102
RTVSPost2010PropOp47
 70
     1
102
RTVSPost2010Prop48
 90
       50
102
RTVSPost2010PropOp48
 70
     1
102
RTVSPost2010Prop49
280
     0
102
RTVSPost2010PropOp49
 70
     1
102
RTVSPost2010Prop50
 90
       50
102
RTVSPost2010PropOp50
 70
     1
102
RTVSPost2010Prop51ColorIndex
 90
      256
102
RTVSPost2010Prop51ColorRGB
 90
-16777216
102
RTVSPost2010PropOp51
 70
     0
102
RTVSPost2010Prop52
140
1.0
102
RTVSPost2010PropOp52
 70
     0
102
RTVSPost2010Prop53
 90
        2
102
RTVSPost2010PropOp53
 70
     1
102
RTVSPost2010Prop54
  1
strokes_ogs.tif
102
RTVSPost2010PropOp54
 70
     1
102
RTVSPost2010Prop55
280
     0
102
RTVSPost2010PropOp55
 70
     1
102
RTVSPost2010Prop56
140
1.0
102
RTVSPost2010PropOp56
 70
     1
102
RTVSPost2010Prop57
140
1.0
102
RTVSPost2010PropOp57
 70
     1
102
RTVSPropertyOp0
 70
     1
102
RTVSPropertyOp1
 70
     1
102
RTVSPropertyOp2
 70
     1
102
RTVSPropertyOp3
 70
     1
102
RTVSPropertyOp4
 70
     1
102
RTVSPropertyOp5
 70
     1
102
RTVSPropertyOp6
 70
     1
102
RTVSPropertyOp7
 70
     1
102
RTVSPropertyOp8
 70
     1
102
RTVSPropertyOp9
 70
     1
102
RTVSPropertyOp10
 70
     1
102
RTVSPropertyOp11
 70
     1
102
RTVSPropertyOp12
 70
     1
102
RTVSPropertyOp13
 70
     1
102
RTVSPropertyOp14
 70
     1
102
RTVSPropertyOp15
 70
     1
102
RTVSPropertyOp16
 70
     1
102
RTVSPropertyOp17
 70
     1
102
RTVSPropertyOp18
 70
     1
102
RTVSPropertyOp19
 70
     1
102
RTVSPropertyOp20
 70
     1
102
RTVSPropertyOp21
 70
     1
102
RTVSPropertyOp22
 70
     1
102
RTVSPropertyOp23
 70
     1
102
RTVSPropertyOp24
 70
     1
102
RTVSPropertyOp25
 70
     1
102
RTVSPropertyOp26
 70
     1
102
RTVSPropertyOp27
 70
     1
102
RTVSPropertyOp28
 70
     1
102
RTVSPropertyOp29
 70
     1
102
RTVSPropertyOp30
 70
     1
102
RTVSPropertyOp31
 70
     1
102
RTVSPropertyOp32
 70
     1
102
RTVSPropertyOp33
 70
     1
102
RTVSPropertyOp34
 70
     1
102
RTVSPropertyOp35
 70
     1
102
RTVSPropertyOp36
 70
     1
102
RTVSPropertyOp37
 70
     1
102
RTVSPropertyOp38
 70
     1
102
RTVSPropertyOp39
 70
     1
102
RTVSPropertyOp40
 70
     1
102
RTVSPropertyOp41
 70
     1
102
RTVSPropertyOp42
 70
     1
102
RTVSPropertyOp43
 70
     1
102
RTVSPropertyOp44
 70
     1
102
RTVSPropertyOp45
 70
     1
102
RTVSPropertyOp46
 70
     1
102
RTVSPropertyOp47
 70
     1
102
RTVSPropertyOp48
 70
     1
102
RTVSPropertyOp49
 70
     1
102
RTVSPropertyOp50
 70
     1
102
RTVSPropertyOp51
 70
     0
102
RTVSPropertyOp52
 70
     0
102
RTVSPropertyOp53
 70
     1
102
RTVSPropertyOp54
 70
     1
102
RTVSPropertyOp55
 70
     1
102
RTVSPropertyOp56
 70
     1
102
RTVSPropertyOp57
 70
     1
102
RTVSPropertyOp58
 70
     1
102
RTVSPropertyOp59
 70
     1
102
RTVSPropertyOp60
 70
     1
102
RTVSPropertyOp61
 70
     1
102
RTVSPropertyOp62
 70
     1
  0
XRECORD
  5
32BE
102
{ACAD_REACTORS
330
32BD
102
}
330
32BD
100
AcDbXrecord
280
     1
102
RTVSPost2010Prop28
280
     0
102
RTVSPost2010PropOp28
 70
     1
102
RTVSPost2010Prop29
280
     1
102
RTVSPost2010PropOp29
 70
     1
102
RTVSPost2010Prop30
280
     1
102
RTVSPost2010PropOp30
 70
     1
102
RTVSPost2010Prop31
280
     0
102
RTVSPost2010PropOp31
 70
     1
102
RTVSPost2010Prop32
280
     0
102
RTVSPost2010PropOp32
 70
     1
102
RTVSPost2010Prop33
280
     0
102
RTVSPost2010PropOp33
 70
     1
102
RTVSPost2010Prop34
280
     0
102
RTVSPost2010PropOp34
 70
     1
102
RTVSPost2010Prop35
280
     0
102
RTVSPost2010PropOp35
 70
     1
102
RTVSPost2010Prop36
280
     0
102
RTVSPost2010PropOp36
 70
     1
102
RTVSPost2010Prop37
 90
       50
102
RTVSPost2010PropOp37
 70
     1
102
RTVSPost2010Prop38
140
0.0
102
RTVSPost2010PropOp38
 70
     1
102
RTVSPost2010Prop39
140
1.0
102
RTVSPost2010PropOp39
 70
     1
102
RTVSPost2010Prop40
 90
        0
102
RTVSPost2010PropOp40
 70
     1
102
RTVSPost2010Prop41ColorIndex
 90
       18
102
RTVSPost2010Prop41ColorRGB
 90
        0
102
RTVSPost2010PropOp41
 70
     1
102
RTVSPost2010Prop42
 90
       50
102
RTVSPost2010PropOp42
 70
     1
102
RTVSPost2010Prop43
 90
        3
102
RTVSPost2010PropOp43
 70
     1
102
RTVSPost2010Prop44ColorIndex
 90
        5
102
RTVSPost2010Prop44ColorRGB
 90
      255
102
RTVSPost2010PropOp44
 70
     1
102
RTVSPost2010Prop45
280
     0
102
RTVSPost2010PropOp45
 70
     1
102
RTVSPost2010Prop46
 90
       50
102
RTVSPost2010PropOp46
 70
     1
102
RTVSPost2010Prop47
 90
       50
102
RTVSPost2010PropOp47
 70
     1
102
RTVSPost2010Prop48
 90
       50
102
RTVSPost2010PropOp48
 70
     1
102
RTVSPost2010Prop49
280
     0
102
RTVSPost2010PropOp49
 70
     1
102
RTVSPost2010Prop50
 90
       50
102
RTVSPost2010PropOp50
 70
     1
102
RTVSPost2010Prop51ColorIndex
 90
      256
102
RTVSPost2010Prop51ColorRGB
 90
-16777216
102
RTVSPost2010PropOp51
 70
     0
102
RTVSPost2010Prop52
140
1.0
102
RTVSPost2010PropOp52
 70
     0
102
RTVSPost2010Prop53
 90
        2
102
RTVSPost2010PropOp53
 70
     1
102
RTVSPost2010Prop54
  1
strokes_ogs.tif
102
RTVSPost2010PropOp54
 70
     1
102
RTVSPost2010Prop55
280
     0
102
RTVSPost2010PropOp55
 70
     1
102
RTVSPost2010Prop56
140
1.0
102
RTVSPost2010PropOp56
 70
     1
102
RTVSPost2010Prop57
140
1.0
102
RTVSPost2010PropOp57
 70
     1
102
RTVSPropertyOp0
 70
     1
102
RTVSPropertyOp1
 70
     1
102
RTVSPropertyOp2
 70
     1
102
RTVSPropertyOp3
 70
     1
102
RTVSPropertyOp4
 70
     1
102
RTVSPropertyOp5
 70
     1
102
RTVSPropertyOp6
 70
     1
102
RTVSPropertyOp7
 70
     1
102
RTVSPropertyOp8
 70
     1
102
RTVSPropertyOp9
 70
     1
102
RTVSPropertyOp10
 70
     1
102
RTVSPropertyOp11
 70
     1
102
RTVSPropertyOp12
 70
     1
102
RTVSPropertyOp13
 70
     1
102
RTVSPropertyOp14
 70
     1
102
RTVSPropertyOp15
 70
     1
102
RTVSPropertyOp16
 70
     1
102
RTVSPropertyOp17
 70
     1
102
RTVSPropertyOp18
 70
     1
102
RTVSPropertyOp19
 70
     1
102
RTVSPropertyOp20
 70
     1
102
RTVSPropertyOp21
 70
     1
102
RTVSPropertyOp22
 70
     1
102
RTVSPropertyOp23
 70
     1
102
RTVSPropertyOp24
 70
     1
102
RTVSPropertyOp25
 70
     1
102
RTVSPropertyOp26
 70
     1
102
RTVSPropertyOp27
 70
     1
102
RTVSPropertyOp28
 70
     1
102
RTVSPropertyOp29
 70
     1
102
RTVSPropertyOp30
 70
     1
102
RTVSPropertyOp31
 70
     1
102
RTVSPropertyOp32
 70
     1
102
RTVSPropertyOp33
 70
     1
102
RTVSPropertyOp34
 70
     1
102
RTVSPropertyOp35
 70
     1
102
RTVSPropertyOp36
 70
     1
102
RTVSPropertyOp37
 70
     1
102
RTVSPropertyOp38
 70
     1
102
RTVSPropertyOp39
 70
     1
102
RTVSPropertyOp40
 70
     1
102
RTVSPropertyOp41
 70
     1
102
RTVSPropertyOp42
 70
     1
102
RTVSPropertyOp43
 70
     1
102
RTVSPropertyOp44
 70
     1
102
RTVSPropertyOp45
 70
     1
102
RTVSPropertyOp46
 70
     1
102
RTVSPropertyOp47
 70
     1
102
RTVSPropertyOp48
 70
     1
102
RTVSPropertyOp49
 70
     1
102
RTVSPropertyOp50
 70
     1
102
RTVSPropertyOp51
 70
     0
102
RTVSPropertyOp52
 70
     0
102
RTVSPropertyOp53
 70
     1
102
RTVSPropertyOp54
 70
     1
102
RTVSPropertyOp55
 70
     1
102
RTVSPropertyOp56
 70
     1
102
RTVSPropertyOp57
 70
     1
102
RTVSPropertyOp58
 70
     1
102
RTVSPropertyOp59
 70
     1
102
RTVSPropertyOp60
 70
     1
102
RTVSPropertyOp61
 70
     1
102
RTVSPropertyOp62
 70
     1
  0
XRECORD
  5
32B0
102
{ACAD_REACTORS
330
32AF
102
}
330
32AF
100
AcDbXrecord
280
     1
102
RTVSPost2010Prop28
280
     0
102
RTVSPost2010PropOp28
 70
     1
102
RTVSPost2010Prop29
280
     1
102
RTVSPost2010PropOp29
 70
     1
102
RTVSPost2010Prop30
280
     1
102
RTVSPost2010PropOp30
 70
     1
102
RTVSPost2010Prop31
280
     0
102
RTVSPost2010PropOp31
 70
     1
102
RTVSPost2010Prop32
280
     0
102
RTVSPost2010PropOp32
 70
     1
102
RTVSPost2010Prop33
280
     0
102
RTVSPost2010PropOp33
 70
     1
102
RTVSPost2010Prop34
280
     0
102
RTVSPost2010PropOp34
 70
     1
102
RTVSPost2010Prop35
280
     0
102
RTVSPost2010PropOp35
 70
     1
102
RTVSPost2010Prop36
280
     0
102
RTVSPost2010PropOp36
 70
     1
102
RTVSPost2010Prop37
 90
       50
102
RTVSPost2010PropOp37
 70
     1
102
RTVSPost2010Prop38
140
0.0
102
RTVSPost2010PropOp38
 70
     1
102
RTVSPost2010Prop39
140
1.0
102
RTVSPost2010PropOp39
 70
     1
102
RTVSPost2010Prop40
 90
        0
102
RTVSPost2010PropOp40
 70
     1
102
RTVSPost2010Prop41ColorIndex
 90
       18
102
RTVSPost2010Prop41ColorRGB
 90
        0
102
RTVSPost2010PropOp41
 70
     1
102
RTVSPost2010Prop42
 90
       50
102
RTVSPost2010PropOp42
 70
     1
102
RTVSPost2010Prop43
 90
        3
102
RTVSPost2010PropOp43
 70
     1
102
RTVSPost2010Prop44ColorIndex
 90
        5
102
RTVSPost2010Prop44ColorRGB
 90
      255
102
RTVSPost2010PropOp44
 70
     1
102
RTVSPost2010Prop45
280
     0
102
RTVSPost2010PropOp45
 70
     1
102
RTVSPost2010Prop46
 90
       50
102
RTVSPost2010PropOp46
 70
     1
102
RTVSPost2010Prop47
 90
       50
102
RTVSPost2010PropOp47
 70
     1
102
RTVSPost2010Prop48
 90
       50
102
RTVSPost2010PropOp48
 70
     1
102
RTVSPost2010Prop49
280
     0
102
RTVSPost2010PropOp49
 70
     1
102
RTVSPost2010Prop50
 90
       50
102
RTVSPost2010PropOp50
 70
     1
102
RTVSPost2010Prop51ColorIndex
 90
      256
102
RTVSPost2010Prop51ColorRGB
 90
-16777216
102
RTVSPost2010PropOp51
 70
     0
102
RTVSPost2010Prop52
140
1.0
102
RTVSPost2010PropOp52
 70
     0
102
RTVSPost2010Prop53
 90
        2
102
RTVSPost2010PropOp53
 70
     1
102
RTVSPost2010Prop54
  1
strokes_ogs.tif
102
RTVSPost2010PropOp54
 70
     1
102
RTVSPost2010Prop55
280
     0
102
RTVSPost2010PropOp55
 70
     1
102
RTVSPost2010Prop56
140
1.0
102
RTVSPost2010PropOp56
 70
     1
102
RTVSPost2010Prop57
140
1.0
102
RTVSPost2010PropOp57
 70
     1
102
RTVSPropertyOp0
 70
     1
102
RTVSPropertyOp1
 70
     1
102
RTVSPropertyOp2
 70
     1
102
RTVSPropertyOp3
 70
     1
102
RTVSPropertyOp4
 70
     1
102
RTVSPropertyOp5
 70
     1
102
RTVSPropertyOp6
 70
     1
102
RTVSPropertyOp7
 70
     1
102
RTVSPropertyOp8
 70
     1
102
RTVSPropertyOp9
 70
     1
102
RTVSPropertyOp10
 70
     1
102
RTVSPropertyOp11
 70
     1
102
RTVSPropertyOp12
 70
     1
102
RTVSPropertyOp13
 70
     1
102
RTVSPropertyOp14
 70
     1
102
RTVSPropertyOp15
 70
     1
102
RTVSPropertyOp16
 70
     1
102
RTVSPropertyOp17
 70
     1
102
RTVSPropertyOp18
 70
     1
102
RTVSPropertyOp19
 70
     1
102
RTVSPropertyOp20
 70
     1
102
RTVSPropertyOp21
 70
     1
102
RTVSPropertyOp22
 70
     1
102
RTVSPropertyOp23
 70
     1
102
RTVSPropertyOp24
 70
     1
102
RTVSPropertyOp25
 70
     1
102
RTVSPropertyOp26
 70
     1
102
RTVSPropertyOp27
 70
     1
102
RTVSPropertyOp28
 70
     1
102
RTVSPropertyOp29
 70
     1
102
RTVSPropertyOp30
 70
     1
102
RTVSPropertyOp31
 70
     1
102
RTVSPropertyOp32
 70
     1
102
RTVSPropertyOp33
 70
     1
102
RTVSPropertyOp34
 70
     1
102
RTVSPropertyOp35
 70
     1
102
RTVSPropertyOp36
 70
     1
102
RTVSPropertyOp37
 70
     1
102
RTVSPropertyOp38
 70
     1
102
RTVSPropertyOp39
 70
     1
102
RTVSPropertyOp40
 70
     1
102
RTVSPropertyOp41
 70
     1
102
RTVSPropertyOp42
 70
     1
102
RTVSPropertyOp43
 70
     1
102
RTVSPropertyOp44
 70
     1
102
RTVSPropertyOp45
 70
     1
102
RTVSPropertyOp46
 70
     1
102
RTVSPropertyOp47
 70
     1
102
RTVSPropertyOp48
 70
     1
102
RTVSPropertyOp49
 70
     1
102
RTVSPropertyOp50
 70
     1
102
RTVSPropertyOp51
 70
     0
102
RTVSPropertyOp52
 70
     0
102
RTVSPropertyOp53
 70
     1
102
RTVSPropertyOp54
 70
     1
102
RTVSPropertyOp55
 70
     1
102
RTVSPropertyOp56
 70
     1
102
RTVSPropertyOp57
 70
     1
102
RTVSPropertyOp58
 70
     1
102
RTVSPropertyOp59
 70
     1
102
RTVSPropertyOp60
 70
     1
102
RTVSPropertyOp61
 70
     1
102
RTVSPropertyOp62
 70
     1
  0
XRECORD
  5
32B8
102
{ACAD_REACTORS
330
32B7
102
}
330
32B7
100
AcDbXrecord
280
     1
102
RTVSPost2010Prop28
280
     0
102
RTVSPost2010PropOp28
 70
     1
102
RTVSPost2010Prop29
280
     1
102
RTVSPost2010PropOp29
 70
     1
102
RTVSPost2010Prop30
280
     1
102
RTVSPost2010PropOp30
 70
     1
102
RTVSPost2010Prop31
280
     0
102
RTVSPost2010PropOp31
 70
     1
102
RTVSPost2010Prop32
280
     0
102
RTVSPost2010PropOp32
 70
     1
102
RTVSPost2010Prop33
280
     0
102
RTVSPost2010PropOp33
 70
     1
102
RTVSPost2010Prop34
280
     0
102
RTVSPost2010PropOp34
 70
     1
102
RTVSPost2010Prop35
280
     0
102
RTVSPost2010PropOp35
 70
     1
102
RTVSPost2010Prop36
280
     0
102
RTVSPost2010PropOp36
 70
     1
102
RTVSPost2010Prop37
 90
       50
102
RTVSPost2010PropOp37
 70
     1
102
RTVSPost2010Prop38
140
0.0
102
RTVSPost2010PropOp38
 70
     1
102
RTVSPost2010Prop39
140
1.0
102
RTVSPost2010PropOp39
 70
     1
102
RTVSPost2010Prop40
 90
        0
102
RTVSPost2010PropOp40
 70
     1
102
RTVSPost2010Prop41ColorIndex
 90
       18
102
RTVSPost2010Prop41ColorRGB
 90
        0
102
RTVSPost2010PropOp41
 70
     1
102
RTVSPost2010Prop42
 90
       50
102
RTVSPost2010PropOp42
 70
     1
102
RTVSPost2010Prop43
 90
        3
102
RTVSPost2010PropOp43
 70
     1
102
RTVSPost2010Prop44ColorIndex
 90
        5
102
RTVSPost2010Prop44ColorRGB
 90
      255
102
RTVSPost2010PropOp44
 70
     1
102
RTVSPost2010Prop45
280
     0
102
RTVSPost2010PropOp45
 70
     1
102
RTVSPost2010Prop46
 90
       50
102
RTVSPost2010PropOp46
 70
     1
102
RTVSPost2010Prop47
 90
       50
102
RTVSPost2010PropOp47
 70
     1
102
RTVSPost2010Prop48
 90
       50
102
RTVSPost2010PropOp48
 70
     1
102
RTVSPost2010Prop49
280
     0
102
RTVSPost2010PropOp49
 70
     1
102
RTVSPost2010Prop50
 90
       50
102
RTVSPost2010PropOp50
 70
     1
102
RTVSPost2010Prop51ColorIndex
 90
      256
102
RTVSPost2010Prop51ColorRGB
 90
-16777216
102
RTVSPost2010PropOp51
 70
     0
102
RTVSPost2010Prop52
140
1.0
102
RTVSPost2010PropOp52
 70
     0
102
RTVSPost2010Prop53
 90
        2
102
RTVSPost2010PropOp53
 70
     1
102
RTVSPost2010Prop54
  1
strokes_ogs.tif
102
RTVSPost2010PropOp54
 70
     1
102
RTVSPost2010Prop55
280
     0
102
RTVSPost2010PropOp55
 70
     1
102
RTVSPost2010Prop56
140
1.0
102
RTVSPost2010PropOp56
 70
     1
102
RTVSPost2010Prop57
140
1.0
102
RTVSPost2010PropOp57
 70
     1
102
RTVSPropertyOp0
 70
     1
102
RTVSPropertyOp1
 70
     1
102
RTVSPropertyOp2
 70
     1
102
RTVSPropertyOp3
 70
     1
102
RTVSPropertyOp4
 70
     1
102
RTVSPropertyOp5
 70
     1
102
RTVSPropertyOp6
 70
     1
102
RTVSPropertyOp7
 70
     1
102
RTVSPropertyOp8
 70
     1
102
RTVSPropertyOp9
 70
     1
102
RTVSPropertyOp10
 70
     1
102
RTVSPropertyOp11
 70
     1
102
RTVSPropertyOp12
 70
     1
102
RTVSPropertyOp13
 70
     1
102
RTVSPropertyOp14
 70
     1
102
RTVSPropertyOp15
 70
     1
102
RTVSPropertyOp16
 70
     1
102
RTVSPropertyOp17
 70
     1
102
RTVSPropertyOp18
 70
     1
102
RTVSPropertyOp19
 70
     1
102
RTVSPropertyOp20
 70
     1
102
RTVSPropertyOp21
 70
     1
102
RTVSPropertyOp22
 70
     1
102
RTVSPropertyOp23
 70
     1
102
RTVSPropertyOp24
 70
     1
102
RTVSPropertyOp25
 70
     1
102
RTVSPropertyOp26
 70
     1
102
RTVSPropertyOp27
 70
     1
102
RTVSPropertyOp28
 70
     1
102
RTVSPropertyOp29
 70
     1
102
RTVSPropertyOp30
 70
     1
102
RTVSPropertyOp31
 70
     1
102
RTVSPropertyOp32
 70
     1
102
RTVSPropertyOp33
 70
     1
102
RTVSPropertyOp34
 70
     1
102
RTVSPropertyOp35
 70
     1
102
RTVSPropertyOp36
 70
     1
102
RTVSPropertyOp37
 70
     1
102
RTVSPropertyOp38
 70
     1
102
RTVSPropertyOp39
 70
     1
102
RTVSPropertyOp40
 70
     1
102
RTVSPropertyOp41
 70
     1
102
RTVSPropertyOp42
 70
     1
102
RTVSPropertyOp43
 70
     1
102
RTVSPropertyOp44
 70
     1
102
RTVSPropertyOp45
 70
     1
102
RTVSPropertyOp46
 70
     1
102
RTVSPropertyOp47
 70
     1
102
RTVSPropertyOp48
 70
     1
102
RTVSPropertyOp49
 70
     1
102
RTVSPropertyOp50
 70
     1
102
RTVSPropertyOp51
 70
     0
102
RTVSPropertyOp52
 70
     0
102
RTVSPropertyOp53
 70
     1
102
RTVSPropertyOp54
 70
     1
102
RTVSPropertyOp55
 70
     1
102
RTVSPropertyOp56
 70
     1
102
RTVSPropertyOp57
 70
     1
102
RTVSPropertyOp58
 70
     1
102
RTVSPropertyOp59
 70
     1
102
RTVSPropertyOp60
 70
     1
102
RTVSPropertyOp61
 70
     1
102
RTVSPropertyOp62
 70
     1
  0
XRECORD
  5
32C0
102
{ACAD_REACTORS
330
32BF
102
}
330
32BF
100
AcDbXrecord
280
     1
102
RTVSPost2010Prop28
280
     0
102
RTVSPost2010PropOp28
 70
     1
102
RTVSPost2010Prop29
280
     1
102
RTVSPost2010PropOp29
 70
     1
102
RTVSPost2010Prop30
280
     1
102
RTVSPost2010PropOp30
 70
     1
102
RTVSPost2010Prop31
280
     0
102
RTVSPost2010PropOp31
 70
     1
102
RTVSPost2010Prop32
280
     0
102
RTVSPost2010PropOp32
 70
     1
102
RTVSPost2010Prop33
280
     0
102
RTVSPost2010PropOp33
 70
     1
102
RTVSPost2010Prop34
280
     0
102
RTVSPost2010PropOp34
 70
     1
102
RTVSPost2010Prop35
280
     0
102
RTVSPost2010PropOp35
 70
     1
102
RTVSPost2010Prop36
280
     0
102
RTVSPost2010PropOp36
 70
     1
102
RTVSPost2010Prop37
 90
       50
102
RTVSPost2010PropOp37
 70
     1
102
RTVSPost2010Prop38
140
0.0
102
RTVSPost2010PropOp38
 70
     1
102
RTVSPost2010Prop39
140
1.0
102
RTVSPost2010PropOp39
 70
     1
102
RTVSPost2010Prop40
 90
        0
102
RTVSPost2010PropOp40
 70
     1
102
RTVSPost2010Prop41ColorIndex
 90
       18
102
RTVSPost2010Prop41ColorRGB
 90
        0
102
RTVSPost2010PropOp41
 70
     1
102
RTVSPost2010Prop42
 90
       50
102
RTVSPost2010PropOp42
 70
     1
102
RTVSPost2010Prop43
 90
        3
102
RTVSPost2010PropOp43
 70
     1
102
RTVSPost2010Prop44ColorIndex
 90
        5
102
RTVSPost2010Prop44ColorRGB
 90
      255
102
RTVSPost2010PropOp44
 70
     1
102
RTVSPost2010Prop45
280
     0
102
RTVSPost2010PropOp45
 70
     1
102
RTVSPost2010Prop46
 90
       50
102
RTVSPost2010PropOp46
 70
     1
102
RTVSPost2010Prop47
 90
       50
102
RTVSPost2010PropOp47
 70
     1
102
RTVSPost2010Prop48
 90
       50
102
RTVSPost2010PropOp48
 70
     1
102
RTVSPost2010Prop49
280
     0
102
RTVSPost2010PropOp49
 70
     1
102
RTVSPost2010Prop50
 90
       50
102
RTVSPost2010PropOp50
 70
     1
102
RTVSPost2010Prop51ColorIndex
 90
      256
102
RTVSPost2010Prop51ColorRGB
 90
-16777216
102
RTVSPost2010PropOp51
 70
     0
102
RTVSPost2010Prop52
140
1.0
102
RTVSPost2010PropOp52
 70
     0
102
RTVSPost2010Prop53
 90
        2
102
RTVSPost2010PropOp53
 70
     1
102
RTVSPost2010Prop54
  1
strokes_ogs.tif
102
RTVSPost2010PropOp54
 70
     1
102
RTVSPost2010Prop55
280
     0
102
RTVSPost2010PropOp55
 70
     1
102
RTVSPost2010Prop56
140
1.0
102
RTVSPost2010PropOp56
 70
     1
102
RTVSPost2010Prop57
140
1.0
102
RTVSPost2010PropOp57
 70
     1
102
RTVSPropertyOp0
 70
     1
102
RTVSPropertyOp1
 70
     1
102
RTVSPropertyOp2
 70
     1
102
RTVSPropertyOp3
 70
     1
102
RTVSPropertyOp4
 70
     1
102
RTVSPropertyOp5
 70
     1
102
RTVSPropertyOp6
 70
     1
102
RTVSPropertyOp7
 70
     1
102
RTVSPropertyOp8
 70
     1
102
RTVSPropertyOp9
 70
     1
102
RTVSPropertyOp10
 70
     1
102
RTVSPropertyOp11
 70
     1
102
RTVSPropertyOp12
 70
     1
102
RTVSPropertyOp13
 70
     1
102
RTVSPropertyOp14
 70
     1
102
RTVSPropertyOp15
 70
     1
102
RTVSPropertyOp16
 70
     1
102
RTVSPropertyOp17
 70
     1
102
RTVSPropertyOp18
 70
     1
102
RTVSPropertyOp19
 70
     1
102
RTVSPropertyOp20
 70
     1
102
RTVSPropertyOp21
 70
     1
102
RTVSPropertyOp22
 70
     1
102
RTVSPropertyOp23
 70
     1
102
RTVSPropertyOp24
 70
     1
102
RTVSPropertyOp25
 70
     1
102
RTVSPropertyOp26
 70
     1
102
RTVSPropertyOp27
 70
     1
102
RTVSPropertyOp28
 70
     1
102
RTVSPropertyOp29
 70
     1
102
RTVSPropertyOp30
 70
     1
102
RTVSPropertyOp31
 70
     1
102
RTVSPropertyOp32
 70
     1
102
RTVSPropertyOp33
 70
     1
102
RTVSPropertyOp34
 70
     1
102
RTVSPropertyOp35
 70
     1
102
RTVSPropertyOp36
 70
     1
102
RTVSPropertyOp37
 70
     1
102
RTVSPropertyOp38
 70
     1
102
RTVSPropertyOp39
 70
     1
102
RTVSPropertyOp40
 70
     1
102
RTVSPropertyOp41
 70
     1
102
RTVSPropertyOp42
 70
     1
102
RTVSPropertyOp43
 70
     1
102
RTVSPropertyOp44
 70
     1
102
RTVSPropertyOp45
 70
     1
102
RTVSPropertyOp46
 70
     1
102
RTVSPropertyOp47
 70
     1
102
RTVSPropertyOp48
 70
     1
102
RTVSPropertyOp49
 70
     1
102
RTVSPropertyOp50
 70
     1
102
RTVSPropertyOp51
 70
     0
102
RTVSPropertyOp52
 70
     0
102
RTVSPropertyOp53
 70
     1
102
RTVSPropertyOp54
 70
     1
102
RTVSPropertyOp55
 70
     1
102
RTVSPropertyOp56
 70
     1
102
RTVSPropertyOp57
 70
     1
102
RTVSPropertyOp58
 70
     1
102
RTVSPropertyOp59
 70
     1
102
RTVSPropertyOp60
 70
     1
102
RTVSPropertyOp61
 70
     1
102
RTVSPropertyOp62
 70
     1
  0
ENDSEC
  0
EOF
